<?xml version="1.0" standalone="no"?>
<!DOCTYPE svg PUBLIC "-//W3C//DTD SVG 1.1//EN" "http://www.w3.org/Graphics/SVG/1.1/DTD/svg11.dtd" >
<svg xmlns="http://www.w3.org/2000/svg">
<metadata></metadata>
<defs>
<font id="sansumiregular" horiz-adv-x="500" >
<font-face units-per-em="1000" ascent="800" descent="-200" />
<missing-glyph horiz-adv-x="266" />
<glyph horiz-adv-x="1000" />
<glyph horiz-adv-x="1000" />
<glyph horiz-adv-x="333" />
<glyph d="M416 732h-76q-20 -23 -39 -36.5t-51 -13.5t-51 13.5t-39 36.5h-76q33 -52 70 -84.5t96 -32.5t96 32.5t70 84.5z" />
<glyph d="M284 610v126h-68v-127z" />
<glyph d="M354 664q0 25 -10 43.5t-25 30.5t-33.5 17.5t-35.5 5.5t-35 -5.5t-33.5 -17.5t-25.5 -30.5t-10 -43.5t10 -43.5t25 -30.5t33 -17.5t35 -5.5t35.5 5.5t34 17.5t25.5 30.5t10 43.5zM283 664q0 -8 -6 -18.5t-27 -10.5q-22 0 -28 11t-6 18q0 9 7 19.5t26 10.5q20 0 27 -10.5 t7 -19.5z" />
<glyph unicode="&#xa;" d="M486 749h-97l-123 -191h69zM331 749h-97l-123 -191h69z" />
<glyph d="M380 -78l-50 38q-22 -20 -38.5 -27.5t-30.5 -7.5q-13 0 -20 2.5t-10 5.5t-3.5 5.5t-0.5 3.5q0 7 3.5 15t20.5 22l78 68h-97l-25 -20q-29 -22 -39.5 -43.5t-10.5 -43.5q0 -21 9 -36.5t23.5 -25.5t32 -15t34.5 -5q34 0 63.5 16t60.5 48z" />
<glyph d="M471 725h-105l-116 -64l-116 64h-105l213 -142h16z" />
<glyph unicode="&#xd;" horiz-adv-x="280" d="M175 -3v582h-70v-582h70z" />
<glyph horiz-adv-x="296" d="M522 752h-86l-651 -767h87z" />
<glyph horiz-adv-x="869" d="M764 645v129h-70v-130zM764 -3v582h-70v-582h70zM658 747q-34 27 -57.5 40t-44.5 21q-33 12 -69 17t-75 5q-105 0 -173 -40q-44 -26 -66.5 -68.5t-22.5 -96.5v-47h-131v-67h132v-764h69v765h324v67h-325v45q0 42 16.5 68.5t42.5 42.5t60 22.5t74 6.5q69 0 121 -19 q23 -8 41 -20t44 -40z" />
<glyph horiz-adv-x="869" d="M764 -3v777h-70v-777h70zM658 747q-34 27 -57.5 40t-44.5 21q-33 12 -69 17t-75 5q-105 0 -173 -40q-44 -26 -66.5 -68.5t-22.5 -96.5v-47h-131v-67h132v-764h69v765h324v67h-325v45q0 42 16.5 68.5t42.5 42.5t60 22.5t74 6.5q69 0 121 -19q23 -8 41 -20t44 -40z" />
<glyph horiz-adv-x="689" d="M669 -3v69h-473v270l210 64v69l-210 -64v351h-71v-372l-87 -27v-69l88 27v-318h543z" />
<glyph horiz-adv-x="280" d="M248 448v82l-74 -57v301h-69v-355l-70 -55v-82l71 55v-340h69v394z" />
<glyph horiz-adv-x="695" d="M612 889h-136l-128 -44l-15 5l-45 15l-68 24h-136l258 -117h12zM646 -3v69h-487l469 638v52h-533v-69h436l-470 -638v-52h585z" />
<glyph horiz-adv-x="604" d="M523 745h-105l-116 -64l-116 64h-105l213 -142h16zM593 -3v68h-449l433 459v55h-518v-68h413l-434 -459v-55h555z" />
<glyph unicode=" "  horiz-adv-x="266" />
<glyph unicode="&#x09;" horiz-adv-x="266" />
<glyph unicode="&#xa0;" horiz-adv-x="266" />
<glyph unicode="!" horiz-adv-x="320" d="M195 756h-70l4 -603h62zM195 -3v130h-70v-130h70z" />
<glyph unicode="&#x22;" horiz-adv-x="353" d="M275 756h-74l7 -213h60zM152 756h-74l7 -213h60z" />
<glyph unicode="#" horiz-adv-x="720" d="M709 495h-172l99 244h-71l-100 -245h-113l99 245h-71l-100 -245h-174l-24 -65h171l-44 -109h-174l-24 -65h172l-105 -258h71l105 259h114l-105 -259h71l105 259h175l24 65h-172l44 109h175zM438 430l-44 -110h-113l44 110h113z" />
<glyph unicode="$" horiz-adv-x="852" d="M734 221q0 31 -9.5 55.5t-26 43.5t-37.5 33t-44 24q-23 11 -47.5 18.5t-48.5 12.5q-17 5 -34 8.5t-33 6.5v232q42 -2 73 -9.5t53.5 -19.5t38.5 -29t28 -37l59 35q-19 30 -41 52.5t-51.5 38t-68 24t-91.5 11.5v74h-67v-74q-75 -3 -124.5 -19.5t-79.5 -40.5t-42.5 -53 t-12.5 -57q0 -46 20 -75.5t49.5 -48t64 -28.5t64.5 -16q17 -4 32.5 -7t29.5 -6v-294q-71 4 -129.5 26t-105.5 79l-51 -48q29 -35 63.5 -58t72 -37t76 -20.5t74.5 -7.5v-83h67v84q58 4 109 20.5t88.5 44t59.5 64.5t22 81zM387 438q-10 2 -21 4.5t-22 4.5q-19 4 -38 8.5 t-37 11.5q-35 13 -53.5 31.5t-18.5 48.5q0 14 6 31.5t25.5 33.5t57.5 28t102 15zM665 217q0 -23 -14 -46.5t-41 -43t-66.5 -33.5t-89.5 -17v277q13 -2 26 -5t27 -6q20 -5 40.5 -11t39.5 -14q36 -16 57 -39.5t21 -61.5z" />
<glyph unicode="%" horiz-adv-x="1016" d="M956 188q0 43 -15 81t-41.5 65.5t-64 43.5t-82.5 16t-82.5 -15.5t-64 -43.5t-41.5 -65.5t-15 -80.5q0 -44 15 -81t41.5 -65t64 -43.5t82.5 -15.5t82.5 15.5t64 43t41.5 65t15 80.5zM842 763h-83l-585 -777h84zM467 560q0 43 -15 81t-41.5 65.5t-64 43.5t-82.5 16 t-82.5 -15.5t-64 -43.5t-41.5 -65.5t-15 -80.5q0 -44 15 -81t41.5 -65t64 -43.5t82.5 -15.5t82.5 15.5t64 43t41.5 65t15 80.5zM887 188q0 -63 -36.5 -101t-96.5 -38q-61 0 -98 38t-37 101t36.5 101t97.5 38t97.5 -38t36.5 -101zM397 560q0 -63 -36 -101t-96 -38 q-61 0 -98 38t-37 101t36.5 101t97.5 38t97.5 -38t36.5 -101h-1z" />
<glyph unicode="&#x26;" horiz-adv-x="935" d="M973 -3l-86 43t-63 32.5t-48.5 27t-43.5 26.5q43 48 75.5 113.5t43.5 157.5h-67q-11 -78 -40 -135.5t-68 -99.5q-76 54 -142 108.5t-126 112.5q37 16 71 34.5t59.5 41.5t40.5 51.5t15 63.5q0 40 -17.5 68t-45 45.5t-63 25.5t-71.5 8q-35 0 -68.5 -9t-60 -27t-42.5 -46 t-16 -67q0 -49 25 -91.5t55 -75.5q-39 -16 -75 -36.5t-63.5 -47t-44.5 -60.5t-17 -76q0 -53 21.5 -91t59.5 -62.5t91 -36.5t115 -12q54 0 100 8.5t84 22t67.5 30.5t51.5 35q42 -27 75.5 -45.5t66.5 -36.5h151zM525 576q0 -44 -44 -77.5t-123 -67.5q-37 40 -58 72.5t-21 68.5 q0 16 7 31t22 26.5t38 18.5t56 7q58 0 91 -22.5t33 -56.5h-1zM622 116q-54 -38 -115 -53t-127 -15q-12 0 -33.5 0.5t-46 4t-49.5 12t-45.5 23.5t-33.5 38t-13 57q0 48 41 90.5t140 80.5q66 -65 138.5 -126.5t143.5 -111.5z" />
<glyph unicode="'" horiz-adv-x="230" d="M152 756h-74l7 -213h60z" />
<glyph unicode="(" horiz-adv-x="496" d="M436 -151q-55 44 -89.5 84t-59.5 90q-20 39 -32.5 79.5t-19.5 78.5t-9 72t-2 61t2.5 61t9 71.5t18.5 77t31 77.5q13 26 28 49t33 44.5t40.5 42t49.5 42.5l-48 43q-29 -22 -51.5 -42t-41.5 -41.5t-35.5 -46t-32.5 -55.5q-38 -72 -55 -154t-17 -169q0 -86 17 -168t56 -157 q29 -56 66 -97.5t94 -85.5z" />
<glyph unicode=")" horiz-adv-x="496" d="M341 314q0 87 -17 169t-55 154q-16 31 -32.5 55.5t-35.5 46t-42 41.5t-51 42l-48 -43q27 -22 49.5 -42.5t40.5 -42t33 -44.5t28 -49q19 -38 31 -77.5t18.5 -77t9 -71.5t2.5 -61t-2.5 -61t-9 -72t-19 -78.5t-32.5 -79.5q-25 -50 -59.5 -90t-89.5 -84l48 -43q57 44 94 85.5 t66 97.5q39 75 56 157t17 168z" />
<glyph unicode="*" horiz-adv-x="682" d="M556 460l-154 82l152 82l-34 62l-148 -92l4 176h-70l4 -176l-148 92l-34 -62l152 -82l-154 -82l35 -62l149 90l-4 -174h70l-4 174l149 -90z" />
<glyph unicode="+" horiz-adv-x="800" d="M681 243v65h-248v185h-67v-186h-247v-65h248v-201h67v202h247z" />
<glyph unicode="," horiz-adv-x="260" d="M182 127h-76l-41 -210h61z" />
<glyph unicode="-" horiz-adv-x="399" d="M323 325v67h-332v-67h332z" />
<glyph unicode="." horiz-adv-x="260" d="M92 -3v130h-69v-130h69z" />
<glyph unicode="/" horiz-adv-x="724" d="M684 786h-81l-557 -801h82z" />
<glyph unicode="0" horiz-adv-x="852" d="M802 369q0 88 -28.5 159t-79 121t-119.5 76.5t-149 26.5t-149 -26.5t-119.5 -76t-79 -120.5t-28.5 -159q0 -89 28.5 -160t79 -121t119.5 -77t149 -27t149 26.5t119.5 76.5t79 121t28.5 160zM732 369q0 -78 -24 -137.5t-66 -99t-97.5 -60t-118.5 -20.5t-119 20.5t-97.5 60 t-66 99t-24.5 137.5t24.5 137.5t66 99.5t97 60.5t118.5 20.5t119 -20.5t98 -60.5t66.5 -99.5t24.5 -137.5h-1z" />
<glyph unicode="1" horiz-adv-x="707" d="M428 -3v748h-36l-300 -120l29 -61l238 95v-662h69z" />
<glyph unicode="2" horiz-adv-x="852" d="M744 -3v70h-566q20 46 51.5 80.5t70.5 62t83.5 49.5t89.5 42q24 11 47.5 22t46.5 22q32 16 62 35t53.5 44t37.5 56.5t14 72.5q0 37 -17 73t-55 64t-100 45t-152 17q-121 0 -196.5 -46t-107.5 -147l72 -10q23 69 77 103t153 34q84 0 134.5 -14.5t78 -35t36 -43.5t8.5 -40 q0 -35 -17.5 -61t-49.5 -49q-17 -12 -36 -23t-41 -22q-23 -11 -46.5 -22t-48.5 -22q-49 -23 -100.5 -50t-97 -65.5t-81 -90.5t-53.5 -124l26 -27h624z" />
<glyph unicode="3" horiz-adv-x="852" d="M738 205q0 41 -19 78t-53 65t-80 44.5t-101 16.5v-33q46 0 85.5 17.5t68 44t44.5 58t16 60.5q0 42 -17.5 78t-52 62t-86 41t-118.5 15q-72 0 -123 -16t-85.5 -42.5t-54 -61t-27.5 -72.5l67 -14q6 25 19 50.5t38 45t65 32t101 12.5q60 0 99.5 -12t63 -30.5t33 -41.5 t9.5 -45q0 -16 -7.5 -38t-34.5 -43t-80.5 -37t-145.5 -19v-63q101 -3 161.5 -17.5t93 -36t42.5 -47t10 -51.5q0 -31 -13.5 -59t-42 -49t-73.5 -33.5t-109 -12.5q-65 0 -109.5 11.5t-75.5 32t-50.5 49t-33.5 63.5l-66 -20q18 -48 46 -85.5t68 -63.5t94.5 -39.5t126.5 -13.5 q73 0 130 16t96.5 44.5t60 69t20.5 90.5z" />
<glyph unicode="4" horiz-adv-x="852" d="M750 198v67h-162v480h-51l-449 -500v-48h432v-200h69v201h161zM523 631q-2 -37 -2.5 -76t-0.5 -80v-211h-323l196 221q33 36 65.5 72.5t64.5 73.5z" />
<glyph unicode="5" horiz-adv-x="852" d="M744 235q0 57 -24 103.5t-67.5 79.5t-103.5 51t-131 18q-54 0 -99 -11.5t-80 -28.5l46 223h407v69h-463l-78 -383l46 -19q34 35 88 59.5t132 24.5q62 0 110 -14.5t81 -40t50 -59.5t17 -73q0 -41 -20 -74.5t-55.5 -57.5t-83.5 -37.5t-105 -13.5t-98.5 12t-72 32.5 t-51.5 48.5t-37 60l-65 -23q19 -42 46.5 -78t67 -62t91.5 -41t120 -15q80 0 142 21t104 55.5t64 80t22 93.5z" />
<glyph unicode="6" horiz-adv-x="852" d="M780 239q0 58 -26 104t-72 78t-110.5 49t-140.5 17q-98 0 -166 -26.5t-108 -67.5q15 146 86 219.5t208 73.5q97 0 152 -36.5t86 -104.5l65 24q-41 88 -113.5 135.5t-189.5 47.5q-101 0 -170.5 -33.5t-113.5 -92t-63.5 -139t-19.5 -173.5q0 -52 15 -110t55 -106.5 t110 -80.5t179 -32q97 0 162 26t104 64.5t55 83t16 80.5zM710 238q0 -28 -12 -60.5t-42.5 -60.5t-82 -47t-130.5 -19q-64 0 -109.5 13t-77 33t-50 44t-29 46.5t-13.5 40.5t-3 25q0 22 13.5 51t45 55t84.5 44t132 18q67 0 118 -13.5t86 -37.5t53 -58t18 -74h-1z" />
<glyph unicode="7" horiz-adv-x="852" d="M716 696v43h-591v-69h502l-343 -673h78z" />
<glyph unicode="8" horiz-adv-x="852" d="M768 202q0 35 -12 65t-32.5 54t-48.5 42.5t-59 30.5q27 10 50 24.5t40 34t26.5 44.5t9.5 56q0 45 -23 81.5t-64.5 63t-99.5 40.5t-129 14t-129 -14t-99.5 -40.5t-64.5 -63t-23 -81.5q0 -59 36.5 -99t89.5 -60q-32 -12 -59.5 -31t-48 -43t-32.5 -54t-12 -64 q0 -54 27 -94.5t73.5 -67.5t109 -40.5t132.5 -13.5q75 0 137.5 14.5t108 42t71 67.5t25.5 92zM672 553q0 -24 -13.5 -47t-43 -41t-76 -29t-113.5 -11t-114 11t-76.5 29t-43 41t-13.5 46q0 24 14.5 47.5t44.5 43t76.5 31.5t111.5 12t111.5 -12t76.5 -31t44.5 -42.5 t14.5 -47.5h-1zM699 201q0 -32 -18 -59.5t-52.5 -47.5t-85.5 -31.5t-117 -11.5t-117 11.5t-85.5 31.5t-52.5 47t-18 59q0 27 15 56t48 53t84.5 39.5t125.5 15.5q73 0 125 -15.5t85 -39t48 -52.5t15 -56z" />
<glyph unicode="9" horiz-adv-x="852" d="M780 423q0 20 -3.5 52.5t-15.5 69t-35.5 73.5t-64 67t-100 48.5t-143.5 18.5q-94 0 -158 -24t-103 -60.5t-56 -80t-17 -82.5q0 -47 19 -92.5t60.5 -81.5t108 -58.5t161.5 -22.5q98 0 166 26.5t108 67.5q-7 -68 -26.5 -122t-55 -92t-88 -58.5t-124.5 -20.5q-49 0 -87 10.5 t-68 30t-52.5 46.5t-41.5 60l-66 -24q25 -43 55 -78t67.5 -59.5t85 -38t107.5 -13.5q103 0 173.5 34.5t113.5 94.5t61.5 139.5t18.5 169.5zM702 484q0 -26 -15 -55t-47.5 -54.5t-84.5 -42t-127 -16.5q-69 0 -120.5 14.5t-86 40t-51.5 59.5t-17 74q0 25 11 56.5t41 59.5 t82 47t134 19q64 0 109.5 -13t77 -33t50 -44t29 -46.5t13.5 -40.5t3 -25h-1z" />
<glyph unicode=":" horiz-adv-x="260" d="M165 405v129h-70v-130zM165 -3v130h-70v-130h70z" />
<glyph unicode=";" horiz-adv-x="260" d="M165 405v129h-70v-130zM182 126h-76l-41 -209h61z" />
<glyph unicode="&#x3c;" horiz-adv-x="800" d="M641 17v72l-421 186l421 186v72l-522 -234v-48z" />
<glyph unicode="=" horiz-adv-x="800" d="M681 307v65h-562v-66zM681 178v66h-562v-66h562z" />
<glyph unicode="&#x3e;" horiz-adv-x="800" d="M681 251v48l-522 234v-72l421 -186l-421 -186v-72z" />
<glyph unicode="?" horiz-adv-x="585" d="M593 574q0 55 -25.5 91.5t-66.5 58t-93.5 30t-106.5 8.5q-71 0 -123.5 -12t-91 -34.5t-66 -54.5t-46.5 -73l63 -28q15 31 36 56.5t51.5 43t72.5 27t100 9.5q51 0 92.5 -7t71.5 -21.5t46.5 -37t16.5 -54.5q0 -23 -5.5 -41t-18.5 -34t-35 -31t-56 -31q-54 -26 -90 -51.5 t-56 -58t-27 -74.5t-4 -102h63q-1 45 3 77t18.5 57t42 46t74.5 43q42 20 72 40.5t49.5 43.5t29 51t9.5 63zM299 -3v130h-69v-130h69z" />
<glyph unicode="@" horiz-adv-x="996" d="M945 384q0 58 -26 111.5t-75.5 94t-121.5 64.5t-165 24q-103 0 -193.5 -29.5t-157.5 -85t-106 -135t-39 -178.5q0 -78 30.5 -143.5t85.5 -113t130 -74.5t164 -27q35 0 71.5 3t74 11.5t76.5 24.5t79 43l-46 46q-31 -18 -59.5 -30t-58 -19t-60 -10t-64.5 -3 q-79 0 -144.5 22t-112 61t-72 92.5t-25.5 116.5q0 94 37 161t99 113q60 45 134 66.5t159 21.5q91 0 149 -22.5t95 -51.5q42 -34 57.5 -75t15.5 -79q0 -31 -6.5 -62.5t-18 -60.5t-27 -53.5t-33.5 -40.5q-4 -4 -8.5 -5t-12.5 -2q-4 0 -7.5 0.5t-8.5 0.5l-2 247v25l-2 -1 q-3 21 -13 48.5t-31.5 52t-57 41.5t-88.5 17q-28 0 -61.5 -4t-63 -9t-49 -9l-19.5 -4l7 -68l16 4.5t42.5 9.5t59.5 9.5t67 4.5q43 0 68 -15.5t37.5 -37t15.5 -44t3 -35.5q-104 -9 -188 -23.5t-143 -40t-90.5 -66.5t-31.5 -103q0 -33 13 -63.5t43 -54.5t78.5 -38.5 t119.5 -14.5q22 0 52 5t63 16t65.5 30t59.5 46l8 9h17h23q13 1 30 4t32 17q25 22 46 54.5t35 69.5t22 74.5t8 69.5zM683 138l-2 -5q-23 -25 -50 -40.5t-54 -23.5t-51 -11t-40 -3q-61 0 -97.5 11t-56.5 27t-26.5 34.5t-6.5 33.5q0 38 21.5 65.5t68 46.5t119.5 32t176 22z" />
<glyph unicode="A" horiz-adv-x="691" d="M697 -3l-336 759h-45l-335 -759h76l110 248h342l111 -248h77zM479 313h-281l75 174q17 38 32.5 76t32.5 77q17 -41 34 -79.5t34 -77.5z" />
<glyph unicode="B" horiz-adv-x="801" d="M751 216q0 72 -44.5 117.5t-118.5 67.5q60 24 88.5 65.5t28.5 96.5q0 89 -86 141t-273 52h-221v-759h217q40 0 86 2t91.5 9.5t87.5 22t74 39t51 60.5t19 86zM633 565q0 -22 -8 -45.5t-37 -43.5t-87 -33t-157 -13h-148v258h147q88 0 144.5 -11t89 -28t45 -39.5t12.5 -44.5 h-1zM680 216q0 -48 -28 -77.5t-75 -46t-108 -22t-127 -5.5h-146v298h162q89 0 150.5 -11.5t99.5 -31t55 -46.5t17 -58z" />
<glyph unicode="C" horiz-adv-x="844" d="M805 179l-57 40q-20 -29 -47 -58.5t-62 -54.5t-78.5 -40.5t-95.5 -15.5q-65 0 -126.5 20t-108.5 60.5t-75.5 101.5t-28.5 144q0 88 30 150t79 101.5t110.5 57.5t124.5 18q90 0 150 -42t102 -108l60 36q-26 40 -57 73.5t-69.5 57.5t-84.5 37t-101 13q-90 0 -165 -27.5 t-132 -79.5q-56 -52 -87 -124.5t-31 -161.5q0 -91 32 -164t91 -128q47 -44 120.5 -73t166.5 -29q63 0 114.5 17.5t93 45.5t74 63t58.5 70z" />
<glyph unicode="D" horiz-adv-x="861" d="M825 376q0 86 -26.5 156.5t-80.5 120t-134.5 76.5t-188.5 27h-250v-759h250q108 0 188.5 27t134.5 76.5t80.5 119.5t26.5 156zM754 376q0 -69 -20 -126t-63.5 -98.5t-111 -64t-162.5 -22.5h-181v623h181q95 0 162.5 -22.5t111 -64t63.5 -99t20 -126.5z" />
<glyph unicode="E" horiz-adv-x="719" d="M654 -3v69h-458v293h361v68h-361v261h444v68h-515v-759h529z" />
<glyph unicode="F" horiz-adv-x="700" d="M640 688v68h-515v-759h72v362h360v68h-361v261h444z" />
<glyph unicode="G" horiz-adv-x="836" d="M773 604q-32 41 -63.5 72t-68 52t-80.5 31.5t-101 10.5q-65 0 -136 -21t-131 -68t-99 -122t-39 -183q0 -94 33.5 -167t89.5 -123.5t129 -76.5t153 -26q41 0 78.5 5t74 16t73 28.5t75.5 43.5v281h-361v-69h290v-177q-50 -30 -108.5 -45.5t-114.5 -15.5q-71 0 -133 21.5 t-108.5 63t-73 102.5t-26.5 139q0 92 32.5 154.5t82.5 101t109.5 55t113.5 16.5q43 0 77 -8t63.5 -24.5t55.5 -42.5t54 -62z" />
<glyph unicode="H" horiz-adv-x="915" d="M790 -3v759h-72v-328h-522v328h-71v-759h72v364h522v-364h71z" />
<glyph unicode="I" horiz-adv-x="342" d="M207 -3v759h-72v-759h72z" />
<glyph unicode="J" horiz-adv-x="629" d="M509 343v413h-72v-412q0 -154 -56.5 -223.5t-154.5 -69.5q-31 0 -57.5 6.5t-51 19t-48.5 31t-49 43.5l-47 -51q28 -27 55 -48.5t56.5 -37t64 -23.5t76.5 -8q136 0 210 93t74 267z" />
<glyph unicode="K" horiz-adv-x="744" d="M760 -3l-391 440l334 319h-101l-230 -221q-45 -43 -88 -85t-88 -84v153v237h-71v-759h72v275l123 118l345 -393h95z" />
<glyph unicode="L" horiz-adv-x="689" d="M669 -3v69h-473v690h-71v-759h544z" />
<glyph unicode="M" horiz-adv-x="1275" d="M1152 -3v759h-68q-163 -244 -273 -409.5t-172 -259.5q-62 94 -172.5 259.5t-272.5 409.5h-69v-759h72q0 223 -0.5 378.5t-1.5 252.5q64 -95 167 -251.5t252 -379.5h48q149 223 252.5 378.5t167.5 252.5q-1 -97 -1 -252v-379h71z" />
<glyph unicode="N" horiz-adv-x="904" d="M779 -3v759h-72q0 -230 0.5 -388t1.5 -255q-77 95 -205.5 254t-314.5 389h-64v-759h72q0 229 -0.5 387.5t-1.5 255.5q78 -97 206 -255t314 -388h64z" />
<glyph unicode="O" horiz-adv-x="940" d="M885 376q0 100 -35 174t-92.5 123t-132.5 73t-155 24t-155 -24t-132.5 -73t-92.5 -123t-35 -173t35 -173t92.5 -123t132.5 -73.5t155 -24.5t155 24t132.5 73t92.5 123t35 173zM813 377q0 -83 -28 -144t-75.5 -101.5t-109.5 -60.5t-130 -20t-130 20t-109.5 60.5t-76 101.5 t-28.5 144t28.5 144.5t75.5 102t109 60.5t130 20t130.5 -20t110 -60.5t76 -102t28.5 -144.5h-1z" />
<glyph unicode="P" horiz-adv-x="811" d="M775 525q0 109 -95.5 170t-298.5 61h-256v-759h72v293h164q213 0 313.5 60t100.5 175zM703 525q0 -34 -15 -64.5t-53.5 -53.5t-105 -36.5t-170.5 -13.5h-163v331h193q94 0 155 -14t96.5 -37t49.5 -52.5t14 -59.5h-1z" />
<glyph unicode="Q" horiz-adv-x="940" d="M885 376q0 100 -35 174t-92.5 123t-132.5 73t-155 24t-155 -24t-132.5 -73t-92.5 -123t-35 -173t35 -173t92.5 -123t132.5 -73.5t155 -24.5q16 0 31 1t31 3q14 -15 34 -33t46 -36q25 -17 58 -25.5t66.5 -10.5t64.5 1.5t53 9.5l-4 60q-15 -3 -42.5 -4.5t-57.5 1t-58 8.5 t-44 17q-18 12 -37 28q57 17 107 49t87 78.5t58.5 107.5t21.5 138zM813 377q0 -70 -20 -124t-54.5 -93.5t-81 -64t-100.5 -35.5l-29 33q-7 8 -18 19t-24.5 23t-29.5 23t-34 20q-30 15 -64.5 19.5t-67.5 4t-62 -5.5t-48 -9q-25 37 -39.5 84t-14.5 106q0 83 28.5 144.5 t75.5 102t109 60.5t130 20t130.5 -20t110 -60.5t76 -102t28.5 -144.5h-1zM475 51h-5q-67 1 -127.5 20t-108.5 57q37 6 80 6.5t78 -16.5q14 -7 24.5 -13.5t20 -14.5t18.5 -17.5t20 -21.5z" />
<glyph unicode="R" horiz-adv-x="809" d="M852 -3l-326 315q51 8 95 27t76.5 48t51.5 66.5t19 82.5q0 106 -91.5 163t-283.5 57h-262v-759h71v309h233l317 -309h100zM697 536q0 -30 -15 -59t-45.5 -52t-76.5 -37.5t-108 -14.5h-250v315h183q102 0 163.5 -14t94.5 -36t43.5 -49t10.5 -53z" />
<glyph unicode="S" horiz-adv-x="790" d="M737 215q0 28 -7.5 51.5t-20 42t-28 33t-31.5 24.5q-19 13 -40.5 22.5t-49.5 17.5t-63 16.5t-81 18.5l-90 20t-61 15t-41.5 12.5t-30.5 12.5q-24 12 -38.5 32.5t-14.5 47.5q0 54 57 86q32 17 84 26.5t113 9.5q54 0 94.5 -7t69.5 -20.5t49.5 -33.5t34.5 -45l63 33 q-21 36 -48.5 62.5t-65 43.5t-86 25.5t-111.5 8.5q-71 0 -128.5 -10.5t-102.5 -33.5q-49 -26 -71.5 -64.5t-22.5 -77.5q0 -27 7 -49.5t18.5 -40t26.5 -30t31 -21.5q14 -7 29.5 -13.5t40 -13.5t61.5 -16t95 -22q56 -12 93.5 -21t62.5 -16.5t40.5 -13.5t28.5 -13 q23 -13 43 -36.5t20 -64.5q0 -31 -17 -58.5t-47 -47.5q-38 -25 -90.5 -41t-121.5 -16q-110 0 -181 31t-113 84l-56 -46q29 -33 63 -58.5t76.5 -43t94 -26t115.5 -8.5q77 0 140.5 18t110.5 50q45 30 71 72t26 92z" />
<glyph unicode="T" horiz-adv-x="686" d="M677 688v68h-655v-69h292v-690h71v691h292z" />
<glyph unicode="U" horiz-adv-x="833" d="M718 309v447h-72v-445q0 -73 -10 -123t-36 -80.5t-70.5 -44t-114.5 -13.5q-68 0 -112 13.5t-70 44t-36.5 80.5t-10.5 123v445h-71v-447q0 -92 18 -154.5t54.5 -100.5t93 -54.5t134.5 -16.5q79 0 136.5 16.5t94.5 54.5t54.5 100.5t17.5 154.5z" />
<glyph unicode="V" horiz-adv-x="753" d="M756 756h-76l-166 -360q-35 -74 -68 -146t-67 -148q-34 75 -67 147.5t-68 146.5l-166 360h-76l351 -759h52z" />
<glyph unicode="W" horiz-adv-x="1210" d="M1211 756h-75l-140 -357q-28 -71 -55 -142t-55 -147q-28 75 -55.5 146.5t-55.5 142.5l-140 357h-55l-140 -358q-28 -71 -55 -142t-56 -146q-28 75 -55 146t-55 142l-140 358h-75l298 -759h54l140 358q28 72 55.5 143t55.5 144q29 -73 56.5 -144.5t55.5 -143.5l140 -357 h54z" />
<glyph unicode="X" horiz-adv-x="806" d="M785 -3l-338 394l313 365h-91l-266 -313l-266 313h-91l313 -365l-338 -394h90l292 342l292 -342h90z" />
<glyph unicode="Y" horiz-adv-x="700" d="M714 756h-86l-152 -202q-32 -42 -63 -84t-63 -85q-32 42 -63 83.5t-63 84.5l-152 203h-86l329 -437v-322h71v322z" />
<glyph unicode="Z" horiz-adv-x="695" d="M646 -3v69h-487l469 638v52h-533v-69h436l-470 -638v-52h585z" />
<glyph unicode="[" horiz-adv-x="479" d="M382 -159v67h-135v812h135v66h-204v-945h204z" />
<glyph unicode="\" horiz-adv-x="724" d="M679 -15l-557 801h-81l556 -801h82z" />
<glyph unicode="]" horiz-adv-x="479" d="M301 -159v945h-204v-67h135v-812h-135v-66h204z" />
<glyph unicode="^" horiz-adv-x="800" d="M662 315l-238 437h-46l-238 -438h74l187 346l187 -346z" />
<glyph unicode="_" horiz-adv-x="800" d="M831 -285v79h-849v-79h849z" />
<glyph unicode="`" d="M341 570l-199 162h-123l228 -163z" />
<glyph unicode="a" horiz-adv-x="653" d="M625 -3l-31 36q-11 13 -17.5 21t-9.5 16.5t-4 19t-1 28.5v280q0 95 -58 144t-184 49q-37 0 -71 -4.5t-52 -8.5t-20 -5l7 -71q2 1 16 6t46 11t73 6q52 0 86 -8.5t54 -25t27.5 -41t7.5 -57.5v-3q-105 -9 -189 -23.5t-143 -40t-90.5 -66.5t-31.5 -103q0 -33 13 -64t43 -55 t78.5 -38.5t119.5 -14.5q19 0 44 3t53 10.5t56.5 20.5t53.5 33q5 -12 12.5 -25t22.5 -30h89zM493 133q-23 -26 -50 -42t-54.5 -25t-52 -12t-40.5 -3q-61 0 -97.5 11t-56.5 27.5t-26.5 35t-6.5 33.5q0 38 21.5 65t68 46t119.5 32t176 22z" />
<glyph unicode="b" horiz-adv-x="734" d="M689 288q0 64 -22 119.5t-62.5 96.5t-98.5 64t-129 23q-57 0 -111 -16.5t-102 -51.5v251h-69v-777h70l-1 59q10 -8 20.5 -15t23.5 -15q31 -17 72 -29t95 -12q78 0 137 25.5t98 68t59 97t20 112.5zM619 288q0 -47 -15.5 -90t-46.5 -75.5t-76 -52t-105 -19.5 q-48 0 -83.5 11.5t-61.5 26.5q-13 8 -24 15.5t-20 15.5q-7 6 -12.5 10.5t-10.5 9.5v297q51 49 102.5 68.5t109.5 19.5t103.5 -18.5t77 -51t47.5 -75.5t16 -92h-1z" />
<glyph unicode="c" horiz-adv-x="673" d="M648 141l-62 31q-17 -27 -37 -49.5t-46 -38t-59 -24.5t-77 -9q-48 0 -94 13.5t-81 42.5t-56.5 74t-21.5 107q0 59 21.5 103.5t57 74t81 44.5t93.5 15q39 0 69 -6.5t54 -19t44 -32t39 -45.5l60 35q-51 67 -112 100.5t-154 33.5q-59 0 -117 -18t-103.5 -55.5t-73.5 -94.5 t-28 -135q0 -80 27.5 -137t72.5 -94t103 -54.5t119 -17.5q56 0 99 12t76 33t59 49.5t47 61.5z" />
<glyph unicode="d" horiz-adv-x="734" d="M639 -3v777h-70v-251q-47 35 -101 51.5t-111 16.5q-71 0 -129 -23t-98.5 -64t-62.5 -96.5t-22 -119.5q0 -58 20 -112.5t59 -97t98 -68t137 -25.5q57 0 99.5 13.5t73.5 31.5q22 13 39 27q-1 -22 -1.5 -41l-0.5 -19h70zM569 140q-5 -5 -11.5 -10.5t-13.5 -11.5 q-10 -8 -21 -16t-24 -15q-26 -15 -60.5 -25.5t-79.5 -10.5q-60 0 -105.5 19.5t-76.5 52t-47 75.5t-16 90q0 49 16 92t47.5 75.5t76.5 51t104 18.5q58 0 109.5 -19.5t102.5 -68.5z" />
<glyph unicode="e" horiz-adv-x="682" d="M650 267q0 82 -22.5 138t-57.5 94q-43 45 -97.5 68.5t-115.5 23.5q-69 0 -122.5 -21t-95.5 -57q-45 -39 -69.5 -94t-24.5 -124q0 -76 23.5 -132t63.5 -95q46 -44 105 -63.5t120 -19.5q40 0 90.5 9t94.5 19.5t74 19.5l30 9l-5 66q-11 -4 -41.5 -13.5t-71 -19t-86 -17 t-87.5 -7.5q-39 0 -79.5 11t-75 36.5t-58 67t-27.5 101.5h535zM576 331h-460q4 39 23 74t50.5 62t74 42.5t93.5 15.5q45 0 82.5 -16t66 -43t46.5 -62.5t24 -73.5v1z" />
<glyph unicode="f" horiz-adv-x="589" d="M667 747q-34 27 -57 40t-45 21q-33 12 -68.5 17t-75.5 5q-105 0 -173 -40q-44 -26 -66 -68.5t-22 -96.5v-47h-131v-64h131v-767h69v768h324v64h-324v45q0 42 16 68.5t42 42.5t60 22.5t74 6.5q69 0 121 -19q23 -8 41 -20t44 -40z" />
<glyph unicode="g" horiz-adv-x="730" d="M640 38v541h-70l1 -52q-42 32 -92 48t-113 16q-62 0 -110 -14.5t-84 -38.5t-60 -55.5t-39 -66t-21.5 -68.5t-6.5 -64q0 -75 28 -131.5t72.5 -93.5t100 -55.5t111.5 -18.5q75 0 126.5 21t87.5 47v-15q0 -65 -13 -104t-39 -68q-31 -34 -77 -49t-88 -15q-40 0 -73 6.5 t-58 17.5q-35 16 -59.5 36t-50.5 49l-53 -46q41 -42 73 -64.5t62 -35.5q70 -29 160 -29q66 0 121.5 22.5t92.5 62.5q39 43 55 95.5t16 121.5zM570 138q-17 -16 -37 -31.5t-45.5 -28t-57 -20t-70.5 -7.5q-50 0 -95 15.5t-78.5 45.5t-53 74t-19.5 101q0 30 10.5 71t39 78 t77.5 63t127 26q72 0 120.5 -23.5t82.5 -62.5z" />
<glyph unicode="h" horiz-adv-x="721" d="M637 -3v400q0 46 -12 78.5t-37 58.5q-55 57 -160 57q-73 0 -147 -29q-28 -11 -55 -26t-55 -33v271h-69v-777h69v426q13 10 29.5 21.5t34.5 22t35.5 19.5t32.5 14q70 25 123 25q46 0 72.5 -11.5t40.5 -25.5q17 -17 23 -40.5t6 -51.5v-399h69z" />
<glyph unicode="i" horiz-adv-x="280" d="M181 645v129h-69v-130zM181 -3v582h-69v-582h69z" />
<glyph unicode="j" horiz-adv-x="280" d="M175 645v129h-70v-130zM175 -23v602h-70v-603q0 -51 -8 -77t-23 -44q-14 -16 -32 -26t-38 -16t-40.5 -8.5t-39.5 -2.5q-21 0 -37 2t-29 5q-23 5 -38 12q-12 4 -22.5 9.5t-22 12t-24.5 16t-30 22.5l-41 -56q38 -29 65 -43.5t53 -24.5t56 -15.5t65 -5.5q137 0 204 75 q27 29 39.5 67t12.5 99z" />
<glyph unicode="k" horiz-adv-x="633" d="M677 -3l-365 338l309 244h-109q-86 -68 -171 -134.5t-170 -134.5v97v367h-69v-777h69v229l86 66l320 -295h100z" />
<glyph unicode="l" horiz-adv-x="280" d="M184 -3v777h-69v-777h69z" />
<glyph unicode="m" horiz-adv-x="1045" d="M955 -3v425q0 34 -10 64.5t-32 53.5q-23 24 -57 37.5t-80 13.5q-57 0 -119 -25q-52 -21 -111 -66q-7 14 -17 27.5t-24 24.5q-23 18 -54 28.5t-69 10.5q-26 0 -54.5 -5.5t-60.5 -18.5q-24 -10 -49.5 -24.5t-53.5 -34.5l1 71h-70v-582h70v430q29 26 58.5 44.5t57.5 29.5 q29 13 55 18.5t46 5.5q29 0 48.5 -7t33.5 -19t20.5 -28t6.5 -41v-433h69v431q32 27 62 45t57 29q53 23 96 23q36 0 56.5 -9t31.5 -21q14 -16 18.5 -35.5t4.5 -42.5v-420h69z" />
<glyph unicode="n" horiz-adv-x="721" d="M631 -3v400q0 46 -12 78.5t-37 58.5q-55 57 -161 57q-72 0 -146 -29q-56 -22 -113 -61q1 14 1.5 33t1 31t0.5 14h-70v-582h70v426q13 10 29.5 21.5t34 22t35 19.5t32.5 14q70 25 123 25q46 0 72.5 -11.5t41.5 -25.5q17 -17 23 -40.5t6 -51.5v-399h69z" />
<glyph unicode="o" horiz-adv-x="739" d="M694 287q0 72 -25.5 128.5t-69.5 95.5t-103 59.5t-126 20.5t-126 -20.5t-103.5 -59t-70 -95t-25.5 -128.5q0 -60 20.5 -115t61 -97t101.5 -66.5t142 -24.5q84 0 145 26t100.5 68t59 96.5t19.5 111.5zM624 287q0 -47 -15.5 -89.5t-46.5 -75.5t-79 -52.5t-112 -19.5 q-66 0 -114.5 19.5t-80 52.5t-47 76t-15.5 89q0 55 19.5 99t53.5 75t81 47t102 16t101.5 -16t80.5 -47t53.5 -75t19.5 -99h-1z" />
<glyph unicode="p" horiz-adv-x="734" d="M689 290q0 64 -21.5 116t-57.5 91q-88 94 -233 94q-43 0 -79 -8t-67 -22q-20 -8 -36.5 -17.5t-30.5 -20.5l1 56h-70v-830h70v306q18 -13 36.5 -24t35.5 -19q44 -18 79.5 -22.5t60.5 -4.5q76 0 135 26t96 66q44 48 62.5 103t18.5 110zM619 290q0 -55 -17 -96t-44 -70 q-35 -38 -82 -55.5t-99 -17.5q-36 0 -65 6.5t-50 15.5q-20 9 -44.5 24.5t-53.5 42.5v297q21 21 45.5 37.5t48.5 27.5q30 14 59.5 18.5t59.5 4.5q61 0 106.5 -20t75.5 -53q30 -32 45.5 -74t15.5 -88h-1z" />
<glyph unicode="q" horiz-adv-x="734" d="M639 -251v830h-70l1 -56q-14 11 -30.5 20.5t-36.5 17.5q-31 14 -67 22t-79 8q-145 0 -233 -94q-36 -39 -57.5 -91t-21.5 -116q0 -55 18.5 -110t62.5 -103q37 -40 96 -66t135 -26q25 0 60.5 4.5t79.5 22.5q17 8 35.5 19t37.5 24v-306h69zM570 140q-29 -27 -53.5 -42.5 t-44.5 -24.5q-21 -9 -50 -15.5t-65 -6.5q-52 0 -98.5 17.5t-82.5 55.5q-27 28 -44.5 69.5t-17.5 96.5q0 46 15.5 88t45.5 74q31 33 76 53t106 20q30 0 59.5 -4.5t59.5 -18.5q24 -11 48.5 -27.5t45.5 -37.5v-297z" />
<glyph unicode="r" horiz-adv-x="562" d="M549 517q-26 24 -41.5 35.5t-33.5 19.5q-23 11 -47.5 15t-48.5 4q-38 0 -72 -9.5t-65 -23.5q-21 -9 -39.5 -20t-37.5 -25l1 66h-70v-582h70v436q50 41 104 67q32 14 59 19.5t50 5.5q22 0 38.5 -3.5t29.5 -9.5q10 -5 22 -14.5t35 -34.5z" />
<glyph unicode="s" horiz-adv-x="652" d="M617 169q0 32 -13.5 61t-38.5 49q-16 13 -35 22.5t-45.5 17t-61 14t-82.5 14.5q-53 8 -86.5 14t-54 11.5t-32.5 11t-22 13.5q-14 11 -19 22t-5 23q0 34 41 55q29 15 72.5 21t91.5 6q86 0 137.5 -24.5t80.5 -67.5l54 47q-29 36 -53 54t-50 29q-40 18 -82.5 23.5t-86.5 5.5 q-121 0 -193 -33q-37 -17 -59 -46t-22 -70q0 -62 56 -102q16 -12 33.5 -20t42 -14t58.5 -12t82 -13q50 -8 83 -14t55 -12t35 -13t23 -16q14 -12 20.5 -28.5t6.5 -31.5q0 -43 -44 -73q-33 -21 -79 -31t-94 -10q-91 0 -154.5 25.5t-101.5 67.5l-51 -50q37 -33 66 -52.5 t67 -30.5q38 -12 82 -19.5t96 -7.5q67 0 119.5 14t89.5 40q36 26 54.5 55.5t18.5 74.5z" />
<glyph unicode="t" horiz-adv-x="676" d="M685 56l-30 61q-45 -23 -96.5 -44.5t-110.5 -21.5q-38 0 -74.5 6t-65 23t-45.5 46t-17 76v313h371v64h-371v162h-69v-163h-166v-64h166v-312q0 -71 28 -114t69 -66t87.5 -30t84.5 -7q73 0 133 22.5t106 48.5z" />
<glyph unicode="u" horiz-adv-x="721" d="M626 -3v582h-70v-426q-35 -26 -70 -45t-61 -30q-33 -14 -64.5 -20.5t-58.5 -6.5q-48 0 -74 12t-39 25q-18 17 -24 39.5t-6 52.5v399h-69v-400q0 -46 12 -78.5t37 -58.5q55 -57 161 -57q71 0 146 30q29 11 56 26t57 35q-1 -14 -1.5 -33.5t-1 -31.5t-0.5 -14h70z" />
<glyph unicode="v" horiz-adv-x="668" d="M674 579h-77l-145 -271q-29 -56 -58.5 -110.5t-59.5 -110.5q-29 54 -58.5 108.5t-58.5 109.5l-145 274h-78l315 -582h49z" />
<glyph unicode="w" horiz-adv-x="1244" d="M1250 579h-77l-145 -269q-29 -55 -58.5 -110t-59.5 -111q-30 55 -59.5 109.5t-59.5 110.5l-147 270h-47q-69 -128 -134 -248.5t-129 -241.5q-30 56 -60 111t-59 111l-144 268h-77l314 -582h51l146 270q29 55 57.5 108t57.5 108q29 -55 59 -109t59 -109l146 -268h52z" />
<glyph unicode="x" horiz-adv-x="627" d="M590 -3v35l-232 267l210 245v35h-59l-196 -229l-195 229h-60v-35l212 -245l-233 -267v-35h60l216 252l217 -252h60z" />
<glyph unicode="y" horiz-adv-x="661" d="M663 579h-74l-112 -260q-22 -53 -45.5 -107t-46.5 -109l-136 217l-162 259h-81l346 -551l-46 -106q-23 -50 -53 -79q-41 -41 -113 -41q-19 0 -34.5 2.5t-29.5 6.5q-14 5 -28.5 12.5t-37.5 22.5l-35 -60q28 -17 44.5 -25t36.5 -13q17 -5 37.5 -8.5t46.5 -3.5 q54 0 92.5 16.5t65.5 41.5q28 25 44 52.5t26 50.5z" />
<glyph unicode="z" horiz-adv-x="604" d="M593 -3v68h-449l433 459v55h-518v-68h413l-434 -459v-55h555z" />
<glyph unicode="{" horiz-adv-x="464" d="M392 -160v65q-48 2 -71.5 9.5t-36.5 19.5q-10 9 -17.5 28.5t-7.5 57.5v157q0 42 -9.5 71.5t-28.5 49.5q-4 5 -8 8.5t-9 7.5q10 7 17 15q19 20 29 49.5t10 71.5v157q0 38 7 57t18 30q9 10 34 18t73 10v65q-59 -4 -96 -14t-61 -35q-45 -44 -45 -133v-144q0 -43 -6 -61 t-16 -29q-9 -10 -26.5 -16.5t-60.5 -10.5v-61q43 -5 60.5 -11t26.5 -16q10 -11 16.5 -29t6.5 -61v-144q0 -45 10.5 -77.5t33.5 -55.5q24 -25 61 -35t96 -14z" />
<glyph unicode="|" horiz-adv-x="593" d="M331 -253v1050h-68v-1050h68z" />
<glyph unicode="}" horiz-adv-x="464" d="M383 283v61q-22 2 -36.5 5t-24.5 6t-16 7t-10 9q-10 11 -16.5 29t-6.5 61v144q0 45 -10.5 77.5t-33.5 55.5q-24 25 -61 35t-96 14v-65q48 -2 73 -10t34 -18q11 -11 18.5 -30t7.5 -57v-157q0 -42 9.5 -71.5t28.5 -49.5q4 -5 8 -8.5t9 -7.5q-10 -7 -17 -15 q-19 -20 -29 -49.5t-10 -71.5v-157q0 -38 -7 -57.5t-17 -28.5q-13 -12 -36.5 -19.5t-71.5 -9.5v-65q59 4 96 14t61 35q45 44 45 133v144q0 43 6 61t16 29q4 5 10 9t16 7t24.5 6t36.5 5z" />
<glyph unicode="~" horiz-adv-x="800" d="M711 306l-62 31q-20 -20 -42 -32.5t-63 -12.5q-21 0 -45.5 3.5t-56.5 11.5l-64 17q-21 5 -52 11t-72 6q-60 0 -97 -22t-68 -59l62 -31q20 20 42 32.5t63 12.5q21 0 45.5 -3.5t56.5 -11.5l64 -17q21 -5 52 -11t72 -6q30 0 53.5 6t43 16.5t36 25.5t32.5 33z" />
<glyph unicode="&#xa1;" horiz-adv-x="320" d="M195 405v129h-70v-130zM195 -225l-4 603h-62l-4 -603h70z" />
<glyph unicode="&#xa2;" horiz-adv-x="852" d="M711 209l-57 39q-39 -54 -88 -82t-116 -33v472q62 -5 111 -31.5t81 -67.5l57 39q-52 61 -112.5 91t-136.5 35v68h-67v-69q-64 -8 -116 -32.5t-88.5 -63.5t-56 -91t-19.5 -113q0 -65 20.5 -118t57 -91.5t88.5 -62.5t115 -30v-71h67v70q85 5 146.5 39t113.5 103zM383 136 q-48 7 -86.5 25t-66.5 47.5t-43 70t-15 91.5q0 94 55.5 156t156.5 77z" />
<glyph unicode="&#xa3;" horiz-adv-x="852" d="M781 64l-48 44q-19 -15 -36.5 -25t-37 -15.5t-43.5 -8t-55 -2.5q-41 0 -72 3.5t-61 8t-62 8t-73 3.5l-7 -1q47 58 47 138q0 36 -6.5 67t-15.5 59h262v66h-287q-13 32 -23.5 63t-10.5 66q0 32 10 59t32.5 46t58.5 29.5t89 10.5q63 0 105 -20t75 -68l57 34 q-24 35 -50.5 58.5t-56.5 37t-63 19t-69 5.5q-63 0 -111 -15.5t-80 -43t-48 -65.5t-16 -84q0 -37 8 -69t19 -64h-110v-66h136q11 -29 19.5 -59t8.5 -66q0 -54 -31 -94t-100 -75l29 -55q18 7 33 11t29.5 6t30.5 3t36 1q36 0 69.5 -3.5t66 -8t65 -8t67.5 -3.5q41 0 73 4.5 t58 13.5t47.5 23t41.5 32z" />
<glyph unicode="&#xa4;" horiz-adv-x="844" d="M845 179l-57 40q-20 -29 -47 -58.5t-62 -54.5t-78.5 -40.5t-95.5 -15.5q-56 0 -109.5 14.5t-97.5 44.5t-76 75t-46 105h598v65h-607v22v20q0 10 1 21h606v65h-594q16 58 50 100t78.5 69t96.5 39.5t105 12.5q90 0 150 -42t102 -108l60 36q-26 40 -57 73.5t-69.5 57.5 t-84.5 37t-101 13q-90 0 -165 -27.5t-132 -79.5q-78 -72 -105 -182h-109v-65h98q-1 -9 -1 -19v-20v-24h-97v-65h105q26 -121 114 -203q47 -44 120.5 -73t166.5 -29q63 0 114.5 17.5t93 45.5t74 63t58.5 70z" />
<glyph unicode="&#xa5;" horiz-adv-x="846" d="M773 739h-86l-146 -194q-29 -40 -58.5 -79.5t-59.5 -81.5q-29 41 -59.5 80.5t-59.5 80.5l-145 194h-86l306 -408h-268v-66h278v-52h-278v-66h278v-150h69v151h275v66h-276v52h276v66h-266z" />
<glyph unicode="&#xa6;" horiz-adv-x="593" d="M331 323v399h-68v-400zM331 -178v400h-68v-400h68z" />
<glyph unicode="&#xa7;" horiz-adv-x="778" d="M706 289q0 52 -21.5 85t-58.5 55t-86.5 35.5t-104.5 25.5q-29 6 -56 12.5t-50 12.5t-41 11.5t-28 10.5q-28 13 -39.5 29.5t-11.5 40.5q0 31 20 50.5t50 29.5t66 13.5t69 3.5q31 0 60.5 -4.5t55 -15.5t45.5 -30t32 -48l63 32q-19 41 -48.5 66.5t-64 40t-71.5 20t-73 5.5 q-51 0 -99.5 -7.5t-89.5 -27.5q-16 -8 -31 -20t-27 -28t-19 -35.5t-7 -43.5q0 -25 8.5 -50t27.5 -45q-14 -8 -28 -19t-25.5 -26t-19 -34.5t-7.5 -44.5q0 -45 21.5 -74.5t58 -49t84.5 -31.5t101 -23q29 -6 58.5 -13t55 -14.5t46.5 -16t34 -18.5q20 -16 29 -31t9 -39 q0 -29 -15.5 -53t-41.5 -42q-62 -41 -156 -41q-46 0 -81 7.5t-62.5 20t-48.5 30.5t-38 39l-55 -42q18 -21 42 -43t58 -39t79.5 -28t105.5 -11q55 0 106 13t96 45q33 24 56.5 59.5t23.5 81.5q0 30 -7.5 51t-18.5 35q30 25 50 58t20 69zM636 291q0 -23 -12.5 -45.5 t-33.5 -38.5q-23 16 -52.5 27t-60.5 19q-35 9 -73.5 16.5t-75.5 15.5q-79 18 -121 40t-42 60q0 31 18 52.5t57 34.5q39 -14 77.5 -24t74.5 -18.5t69 -15.5t62 -16q58 -17 86 -40.5t28 -66.5h-1z" />
<glyph unicode="&#xa8;" d="M398 610v126h-68v-127zM169 609v127h-67v-127h67z" />
<glyph unicode="&#xa9;" horiz-adv-x="1008" d="M896 377q0 81 -31 152.5t-84 125t-124.5 84.5t-152.5 31t-153 -31t-125.5 -84t-84.5 -125t-31 -153t31 -153t84 -125.5t125 -84.5t153 -31t153 31t125 84.5t84 125.5t31 153zM829 377q0 -68 -25.5 -127.5t-70 -104t-103.5 -70.5t-126 -26t-126.5 26t-103.5 70.5t-70 104 t-26 127.5q0 67 25.5 127t70 104t103.5 70t126 26t126.5 -26t104 -70t70.5 -104t26 -127h-1zM703 205l-46 49q-40 -43 -69 -53q-14 -5 -31 -9.5t-40 -4.5q-32 0 -64 11t-60 40t-39 64.5t-11 76.5q0 54 14.5 86t33.5 51q29 28 60 40.5t66 12.5q12 0 20 -0.5t15 -2t14 -3.5 t16 -5q11 -4 27 -14t40 -33l46 50q-31 27 -49 38.5t-38 19.5q-42 16 -89 16q-54 0 -97 -19t-77 -51q-35 -34 -53 -81.5t-18 -104.5q0 -118 71 -187q33 -34 77 -52.5t97 -18.5q26 0 52 5.5t42 13.5q20 8 41 22t49 43z" />
<glyph unicode="&#xaa;" horiz-adv-x="455" d="M411 382v38q-16 12 -19.5 17t-3.5 11v142q0 27 -1.5 55.5t-15.5 52.5q-17 27 -51 40.5t-88 13.5q-39 0 -65 -3.5t-42 -9.5t-24.5 -13t-12.5 -13l1 -74l11.5 7.5t31.5 16.5t46.5 16.5t56.5 7.5q39 0 56 -8t22 -16q5 -7 6.5 -14.5t1.5 -15.5q-65 -6 -115 -16t-84 -27 t-51.5 -43t-17.5 -63q0 -34 16.5 -55.5t41 -33.5t52 -16.5t48.5 -4.5q27 0 59.5 8t61.5 26q4 -6 9 -12t15 -15zM321 479q-48 -40 -117 -40q-13 0 -27.5 1.5t-27 6.5t-21 14t-8.5 25q0 13 8 25.5t30 23t61.5 19.5t102.5 14z" />
<glyph unicode="&#xab;" horiz-adv-x="546" d="M466 25v90l-156 156l156 156v90l-244 -235v-22zM302 25v90l-156 156l156 156v90l-244 -235v-22z" />
<glyph unicode="&#xac;" horiz-adv-x="800" d="M681 157v215h-562v-66h495v-150z" />
<glyph unicode="&#xad;" horiz-adv-x="399" d="M323 325v67h-332v-67h332z" />
<glyph unicode="&#xae;" horiz-adv-x="1008" d="M897 377q0 81 -31 152.5t-84 125t-124.5 84.5t-152.5 31t-153 -31t-125.5 -84t-84.5 -125t-31 -153t31 -153t84 -125.5t125 -84.5t153 -31t153 31t125 84.5t84 125.5t31 153zM619 484q0 -34 -26 -59t-87 -25h-86v172h50q75 0 112.5 -20t37.5 -68h-1zM831 377 q0 -65 -23.5 -122t-64.5 -102l-164 191q18 6 37.5 16t35.5 27.5t26.5 42t10.5 58.5q0 29 -11 56.5t-39 49.5q-26 21 -67.5 32.5t-101.5 11.5h-119v-515h70v212h77l181 -212h32q-42 -35 -94.5 -54.5t-111.5 -19.5q-67 0 -126.5 26t-103.5 70.5t-70 104t-26 127.5 q0 67 25.5 127t70 104t103.5 70t126 26t126.5 -26t104 -70t70.5 -104t26 -127z" />
<glyph unicode="&#xaf;" d="M405 638v67h-310v-68z" />
<glyph unicode="&#xb0;" horiz-adv-x="506" d="M401 604q0 30 -11.5 57t-31.5 47.5t-47 32t-57 11.5q-31 0 -58 -11.5t-47.5 -31.5t-32 -47t-11.5 -58t11.5 -58t31.5 -47t47 -31.5t58 -11.5t58 11.5t47 31.5t31.5 47t11.5 58zM332 604q0 -32 -23 -55.5t-55 -23.5t-55.5 23.5t-23.5 55.5q0 33 23 56t55 23 q16 0 30.5 -6.5t25.5 -17t17.5 -25t6.5 -30.5h-1z" />
<glyph unicode="&#xb1;" horiz-adv-x="800" d="M681 243v65h-248v185h-67v-186h-247v-65h248v-181h67v182h247zM681 -3v66h-562v-66h562z" />
<glyph unicode="&#xb2;" horiz-adv-x="543" d="M474 281v67h-326q29 40 73.5 65t93.5 48q28 13 56 26.5t50 31.5t35.5 42t13.5 56q0 36 -16 61.5t-43 42t-62.5 24t-75.5 7.5q-87 0 -134.5 -35t-66.5 -102l67 -10q5 15 12.5 30t21.5 26t37 18t59 7q39 0 64.5 -6t41 -16t22 -22t6.5 -24q0 -31 -34 -56q-9 -6 -20 -12.5 t-23 -12.5q-13 -6 -27 -12t-28 -13q-29 -13 -60 -29.5t-60 -40t-53.5 -57t-40.5 -79.5l31 -26z" />
<glyph unicode="&#xb3;" horiz-adv-x="543" d="M468 412q0 47 -23.5 75.5t-54.5 42.5q26 15 40.5 39.5t14.5 61.5q0 18 -6.5 39t-26 39t-54 30.5t-89.5 12.5q-36 0 -67 -6t-56 -21t-43 -41t-27 -66l65 -14q7 24 16.5 39.5t24.5 25t36.5 13.5t51.5 4q40 0 62 -7.5t32 -18t11.5 -20.5t1.5 -14q0 -11 -7.5 -23t-26 -22 t-51 -16.5t-83.5 -6.5v-64q53 0 90 -5.5t59.5 -16t32.5 -24.5t10 -31q0 -15 -6 -29.5t-20.5 -26t-38.5 -18t-60 -6.5q-34 0 -59 5t-43 16.5t-31 29t-24 42.5l-65 -18q16 -40 37.5 -67t48 -43.5t59 -23.5t70.5 -7q94 0 146.5 37t52.5 104z" />
<glyph unicode="&#xb4;" d="M481 732h-123l-199 -163h94z" />
<glyph unicode="&#xb5;" horiz-adv-x="721" d="M626 -3v582h-70v-426q-35 -26 -70 -45t-61 -30q-33 -14 -64.5 -20.5t-58.5 -6.5q-48 0 -74 12t-40 25q-18 18 -23.5 40.5t-5.5 51.5v399h-69v-830h70v276q54 -40 140 -40q71 0 146 30q29 11 56 26t57 35q-1 -14 -1.5 -33.5t-1 -31.5t-0.5 -14h70z" />
<glyph unicode="&#xb6;" horiz-adv-x="654" d="M516 -235v991h-236q-57 0 -103 -16t-78 -45q-33 -29 -51 -70t-18 -89q0 -62 24 -104.5t62 -68.5q34 -23 74.5 -33.5t84.5 -12.5v-552h67v925h107v-925h67z" />
<glyph unicode="&#xb7;" horiz-adv-x="260" d="M173 275q0 17 -12.5 30t-29.5 13q-18 0 -31 -12.5t-13 -30.5t12.5 -30.5t30.5 -12.5t30.5 12.5t12.5 30.5z" />
<glyph unicode="&#xb8;" d="M373 -90q0 21 -8 35t-20 23.5t-27.5 14.5t-30.5 7l45 57h-84l-79 -102l47 -25q11 3 26.5 6.5t29.5 4t24 -3.5t10 -17q0 -8 -6.5 -12.5t-16 -6.5t-21 -2.5t-21.5 -0.5q-23 0 -43.5 5.5t-46.5 18.5l-39 -54q34 -17 63.5 -26.5t65.5 -9.5q23 0 46.5 4.5t42.5 15t31 27.5 t12 41z" />
<glyph unicode="&#xb9;" horiz-adv-x="543" d="M327 281v467h-39l-146 -65l25 -61l93 43v-385z" />
<glyph unicode="&#xba;" horiz-adv-x="464" d="M438 563q0 43 -15.5 78t-43 60t-65 38t-81.5 13t-81 -13t-64.5 -37.5t-43 -59.5t-15.5 -78q0 -44 15.5 -79t43 -59.5t64.5 -38t81 -13.5t81.5 13t65 38t43 59.5t15.5 78.5zM370 564q0 -55 -35.5 -89.5t-101.5 -34.5q-65 0 -101 34.5t-36 89.5t36 89.5t100 34.5 q66 0 102.5 -34.5t36.5 -89.5h-1z" />
<glyph unicode="&#xbb;" horiz-adv-x="546" d="M488 260v22l-244 235v-90l156 -156l-156 -156v-90zM324 260v22l-244 235v-90l156 -156l-156 -156v-90z" />
<glyph unicode="&#xbc;" horiz-adv-x="1161" d="M1045 115v65h-95v284h-53l-287 -304v-46h274v-117h67v118h94zM884 752h-86l-651 -767h87zM327 281v467h-39l-146 -65l25 -61l93 43v-385zM884 354v-75v-100h-165q42 45 82.5 88t82.5 87z" />
<glyph unicode="&#xbd;" horiz-adv-x="1161" d="M1056 -3v68h-326q29 40 73.5 65t93.5 48q28 13 56 26.5t50 31.5t35.5 42t13.5 56q0 36 -16 61.5t-43 42t-62.5 24t-75.5 7.5q-87 0 -134.5 -35t-66.5 -102l67 -10q5 15 12.5 30t21.5 26t37 18t59 7q39 0 64.5 -6t41 -16t22 -22t6.5 -24q0 -31 -34 -56q-9 -6 -20 -12.5 t-23 -12.5q-13 -6 -27 -12t-28 -13q-29 -13 -60 -29.5t-60 -40t-53.5 -57t-40.5 -79.5l31 -26h386zM861 752h-86l-651 -767h87zM308 281v467h-38l-136 -41l20 -62l87 25v-390z" />
<glyph unicode="&#xbe;" horiz-adv-x="1246" d="M1130 115v65h-95v284h-53l-287 -304v-46h274v-117h67v118h94zM985 752h-86l-651 -767h87zM468 412q0 47 -23.5 75.5t-54.5 42.5q26 15 40.5 39.5t14.5 61.5q0 18 -6.5 39t-26 39t-54 30.5t-89.5 12.5q-36 0 -67 -6t-56 -21t-43 -41t-27 -66l65 -14q7 24 16.5 39.5 t24.5 25t36.5 13.5t51.5 4q40 0 62 -7.5t32 -18t11.5 -20.5t1.5 -14q0 -11 -7.5 -23t-26 -22t-51 -16.5t-83.5 -6.5v-64q53 0 90 -5.5t59.5 -16t32.5 -24.5t10 -31q0 -15 -6 -29.5t-20.5 -26t-38.5 -18t-60 -6.5q-34 0 -59 5t-43 16.5t-31 29t-24 42.5l-65 -18 q16 -40 37.5 -67t48 -43.5t59 -23.5t70.5 -7q94 0 146.5 37t52.5 104zM969 354v-75v-100h-165q42 45 82.5 88t82.5 87z" />
<glyph unicode="&#xbf;" horiz-adv-x="587" d="M355 405v129h-70v-130zM608 -61l-63 25q-30 -62 -90 -95.5t-167 -33.5q-51 0 -92.5 7t-71.5 21.5t-46.5 37t-16.5 54.5q0 23 5.5 41t18.5 34t35 31t56 31q54 26 90 51.5t56 58t27 74.5t4 102h-63q1 -45 -3 -77t-18.5 -57t-42.5 -46t-74 -43q-42 -20 -72.5 -40.5 t-50 -43.5t-28.5 -51t-9 -63q0 -56 25.5 -92t66.5 -57.5t93.5 -30t106.5 -8.5q69 0 121 11t91 33t66 53.5t46 72.5z" />
<glyph unicode="&#xc0;" horiz-adv-x="691" d="M503 765q11 -7 3 -2t-28.5 17t-49 29.5t-57 35.5t-54.5 33.5t-41 25.5h-163l273 -140zM704 -3l-336 759h-46l-335 -759h77l110 248h341l111 -248h78zM486 313h-282l76 174l32 76t33 77q17 -41 33.5 -79.5t33.5 -77.5z" />
<glyph unicode="&#xc1;" horiz-adv-x="691" d="M583 904h-163l-227 -140h117zM704 -3l-336 759h-46l-335 -759h77l110 248h341l111 -248h78zM486 313h-282l76 174l32 76t33 77q17 -41 33.5 -79.5t33.5 -77.5z" />
<glyph unicode="&#xc2;" horiz-adv-x="691" d="M610 757l-258 116h-12l-258 -117h136l128 44l15 -5l45 -15l68 -24zM704 -3l-336 759h-46l-335 -759h77l110 248h341l111 -248h78zM486 313h-282l76 174l32 76t33 77q17 -41 33.5 -79.5t33.5 -77.5z" />
<glyph unicode="&#xc3;" horiz-adv-x="691" d="M530 831l-46 46q-11 -13 -20 -20.5t-17 -11.5t-16 -5.5t-17 -1.5q-14 0 -28 2.5t-21 4.5l-22 7q-20 7 -37 9t-31 2q-29 0 -57 -11.5t-57 -47.5l47 -46q21 26 34.5 32t32.5 6q14 0 28 -2.5t21 -4.5l22 -7q20 -7 37 -9t31 -2q30 0 58.5 12t57.5 48zM704 -3l-336 759h-46 l-335 -759h77l110 248h341l111 -248h78zM486 313h-282l76 174l32 76t33 77q17 -41 33.5 -79.5t33.5 -77.5z" />
<glyph unicode="&#xc4;" horiz-adv-x="691" d="M496 745v121h-68v-122zM263 744v122h-67v-122h67zM704 -3l-336 759h-46l-335 -759h77l110 248h341l111 -248h78zM486 313h-282l76 174l32 76t33 77q17 -41 33.5 -79.5t33.5 -77.5z" />
<glyph unicode="&#xc5;" horiz-adv-x="691" d="M704 -3l-319 721q24 8 43.5 28t19.5 52q0 22 -10 38.5t-25 27.5t-33 16t-34 5t-34 -5t-33 -16t-25 -27.5t-10 -38.5q0 -32 19 -51.5t43 -28.5l-319 -721h77l110 248h341l111 -248h78zM378 798q0 -5 -5.5 -13t-26.5 -8q-22 0 -28.5 8t-6.5 13q0 6 7 13.5t27 7.5t27 -7.5 t7 -13.5h-1zM486 312h-282l76 175l32 76t33 77q17 -41 33.5 -79.5t33.5 -77.5z" />
<glyph unicode="&#xc6;" horiz-adv-x="1120" d="M1055 -3v69h-458v293h361v68h-361v261h444v68h-511l-590 -759h86l193 248h308v-248h528zM527 313h-256l135 174q31 39 61 77.5t60 78.5v-143v-187z" />
<glyph unicode="&#xc7;" horiz-adv-x="844" d="M805 179l-57 40q-20 -29 -47 -58.5t-62 -54.5t-78.5 -40.5t-95.5 -15.5q-65 0 -126.5 20t-108.5 60.5t-75.5 101.5t-28.5 144q0 88 30 150t79 101.5t110.5 57.5t124.5 18q90 0 150 -42t102 -108l60 36q-26 40 -57 73.5t-69.5 57.5t-84.5 37t-101 13q-90 0 -165 -27.5 t-132 -79.5q-56 -52 -87 -124.5t-31 -161.5q0 -91 32 -164t91 -128q39 -37 98 -64t133 -35l-39 -54l45 -25q46 9 74.5 6.5t28.5 -22.5l-2 -4.5t-10 -9.5t-23.5 -9t-42.5 -4q-26 0 -48.5 6t-48.5 18l-38 -53q37 -20 69.5 -28.5t70.5 -8.5q64 0 103 25t39 68q0 22 -9 37.5 t-23.5 26t-32 16t-35.5 7.5l4 6q57 4 104 22t85.5 45.5t69.5 60.5t55 67z" />
<glyph unicode="&#xc8;" horiz-adv-x="719" d="M477 735l-227 139h-163l273 -140zM654 -3v69h-458v293h361v68h-361v261h444v68h-515v-759h529z" />
<glyph unicode="&#xc9;" horiz-adv-x="719" d="M637 924h-163l-227 -140h117zM654 -3v69h-458v293h361v68h-361v261h444v68h-515v-759h529z" />
<glyph unicode="&#xca;" horiz-adv-x="719" d="M634 787l-258 116h-12l-258 -117h136l128 44l15 -5l45 -15l68 -24zM654 -3v69h-458v293h361v68h-361v261h444v68h-515v-759h529z" />
<glyph unicode="&#xcb;" horiz-adv-x="719" d="M530 785v121h-68v-122zM297 784v122h-67v-122h67zM654 -3v69h-458v293h361v68h-361v261h444v68h-515v-759h529z" />
<glyph unicode="&#xcc;" horiz-adv-x="342" d="M328 765l-227 139h-163l273 -140zM206 -3v759h-71v-759h71z" />
<glyph unicode="&#xcd;" horiz-adv-x="342" d="M408 904h-163l-227 -140h117zM207 -3v759h-72v-759h72z" />
<glyph unicode="&#xce;" horiz-adv-x="342" d="M435 777l-258 116h-12l-258 -117h136l128 44l15 -5l45 -15l68 -24zM206 -3v759h-71v-759h71z" />
<glyph unicode="&#xcf;" horiz-adv-x="342" d="M321 775v121h-68v-122zM88 774v122h-67v-122h67zM207 -3v759h-72v-759h72z" />
<glyph unicode="&#xd0;" horiz-adv-x="881" d="M806 376q0 86 -26.5 156.5t-80.5 120t-134.5 76.5t-188.5 27h-251v-331h-90v-68h91v-360h250q108 0 188.5 27t134.5 76.5t80.5 119.5t26.5 156zM734 376q0 -69 -20 -126t-63 -98.5t-110.5 -64t-162.5 -22.5h-182v293h254v68h-254v262h182q95 0 162.5 -22.5t111 -64 t63.5 -99t20 -126.5h-1z" />
<glyph unicode="&#xd1;" horiz-adv-x="904" d="M636 831l-46 46q-11 -13 -20 -20.5t-17 -11.5t-16 -5.5t-17 -1.5q-14 0 -28 2.5t-21 4.5l-22 7q-20 7 -37 9t-31 2q-29 0 -57 -11.5t-57 -47.5l47 -46q21 26 34.5 32t32.5 6q14 0 28 -2.5t21 -4.5l22 -7q20 -7 37 -9t31 -2q30 0 58.5 12t57.5 48zM779 -3v759h-72 q0 -230 0.5 -388t1.5 -255q-77 95 -205.5 254t-314.5 389h-64v-759h72q0 229 -0.5 387.5t-1.5 255.5q78 -97 206 -255t314 -388h64z" />
<glyph unicode="&#xd2;" horiz-adv-x="940" d="M885 376q0 89 -28 157.5t-76 117t-111 77t-132 37.5l-179 110h-163l213 -109q-71 -9 -135 -37t-112.5 -76.5t-77.5 -117t-29 -158.5q0 -99 35 -173t92.5 -123t132.5 -73.5t155 -24.5t155 24t132.5 73t92.5 123t35 173zM813 377q0 -83 -28 -144t-75.5 -101.5t-109.5 -60.5 t-130 -20t-130 20t-109.5 60.5t-76 101.5t-28.5 144t28.5 144.5t75.5 102t109 60.5t130 20t130.5 -20t110 -60.5t76 -102t28.5 -144.5h-1z" />
<glyph unicode="&#xd3;" horiz-adv-x="940" d="M885 376q0 90 -28.5 159t-77.5 117.5t-113 76.5t-134 37l214 109h-163l-178 -110q-70 -9 -133.5 -37t-111.5 -76.5t-76.5 -117t-28.5 -157.5q0 -99 35 -173t92.5 -123t132.5 -73.5t155 -24.5t155 24t132.5 73t92.5 123t35 173zM813 377q0 -83 -28 -144t-75.5 -101.5 t-109.5 -60.5t-130 -20t-130 20t-109.5 60.5t-76 101.5t-28.5 144t28.5 144.5t75.5 102t109 60.5t130 20t130.5 -20t110 -60.5t76 -102t28.5 -144.5h-1z" />
<glyph unicode="&#xd4;" horiz-adv-x="940" d="M733 788l-258 116h-12l-258 -117h136l128 44l15 -5l45 -15l68 -24zM885 376q0 100 -35 174t-92.5 123t-132.5 73t-155 24t-155 -24t-132.5 -73t-92.5 -123t-35 -173t35 -173t92.5 -123t132.5 -73.5t155 -24.5t155 24t132.5 73t92.5 123t35 173zM813 377q0 -83 -28 -144 t-75.5 -101.5t-109.5 -60.5t-130 -20t-130 20t-109.5 60.5t-76 101.5t-28.5 144t28.5 144.5t75.5 102t109 60.5t130 20t130.5 -20t110 -60.5t76 -102t28.5 -144.5h-1z" />
<glyph unicode="&#xd5;" horiz-adv-x="940" d="M653 852l-46 46q-11 -13 -20 -20.5t-17 -11.5t-16 -5.5t-17 -1.5q-14 0 -28 2.5t-21 4.5l-22 7q-20 7 -37 9t-31 2q-29 0 -57 -11.5t-57 -47.5l47 -46q21 26 34.5 32t32.5 6q14 0 28 -2.5t21 -4.5l22 -7q20 -7 37 -9t31 -2q30 0 58.5 12.5t57.5 47.5zM885 376 q0 100 -35 174t-92.5 123t-132.5 73t-155 24t-155 -24t-132.5 -73t-92.5 -123t-35 -173t35 -173t92.5 -123t132.5 -73.5t155 -24.5t155 24t132.5 73t92.5 123t35 173zM813 377q0 -83 -28 -144t-75.5 -101.5t-109.5 -60.5t-130 -20t-130 20t-109.5 60.5t-76 101.5t-28.5 144 t28.5 144.5t75.5 102t109 60.5t130 20t130.5 -20t110 -60.5t76 -102t28.5 -144.5h-1z" />
<glyph unicode="&#xd6;" horiz-adv-x="940" d="M619 776v121h-68v-122zM386 775v122h-67v-122h67zM885 376q0 100 -35 174t-92.5 123t-132.5 73t-155 24t-155 -24t-132.5 -73t-92.5 -123t-35 -173t35 -173t92.5 -123t132.5 -73.5t155 -24.5t155 24t132.5 73t92.5 123t35 173zM813 377q0 -83 -28 -144t-75.5 -101.5 t-109.5 -60.5t-130 -20t-130 20t-109.5 60.5t-76 101.5t-28.5 144t28.5 144.5t75.5 102t109 60.5t130 20t130.5 -20t110 -60.5t76 -102t28.5 -144.5h-1z" />
<glyph unicode="&#xd7;" horiz-adv-x="800" d="M667 54l-221 221l221 221l-46 46l-221 -221l-221 221l-46 -46l221 -221l-221 -221l46 -46l221 221l221 -221z" />
<glyph unicode="&#xd8;" horiz-adv-x="940" d="M907 728l-48 52l-108 -103q-56 46 -128 69.5t-153 23.5q-80 0 -155 -24t-132.5 -73t-92.5 -123t-35 -174q0 -89 26.5 -150.5t60.5 -103.5l-109 -97l48 -52l108 103q56 -46 127.5 -69.5t152.5 -23.5q80 0 155 24t133 73t93 123t35 173q0 89 -26.5 151t-61.5 104zM702 633 l-511 -469q-31 42 -48 95.5t-17 116.5q0 83 28.5 144.5t76 102t109.5 60.5t130 20q48 0 89 -9t70 -21q22 -9 40 -19t33 -21zM814 376q0 -83 -28.5 -144t-76 -101.5t-109.5 -60.5t-130 -20q-48 0 -89 9t-70 21q-23 9 -41 19t-32 21l511 469q30 -42 47.5 -96t17.5 -117z" />
<glyph unicode="&#xd9;" horiz-adv-x="833" d="M534 765l-227 139h-163l273 -140zM718 309v447h-72v-445q0 -73 -10 -123t-36 -80.5t-70.5 -44t-114.5 -13.5q-68 0 -112 13.5t-70 44t-36.5 80.5t-10.5 123v445h-71v-447q0 -92 18 -154.5t54.5 -100.5t93 -54.5t134.5 -16.5q79 0 136.5 16.5t94.5 54.5t54.5 100.5 t17.5 154.5z" />
<glyph unicode="&#xda;" horiz-adv-x="833" d="M694 894h-163l-227 -140h117zM718 309v447h-72v-445q0 -73 -10 -123t-36 -80.5t-70.5 -44t-114.5 -13.5q-68 0 -112 13.5t-70 44t-36.5 80.5t-10.5 123v445h-71v-447q0 -92 18 -154.5t54.5 -100.5t93 -54.5t134.5 -16.5q79 0 136.5 16.5t94.5 54.5t54.5 100.5t17.5 154.5 z" />
<glyph unicode="&#xdb;" horiz-adv-x="833" d="M681 777l-258 116h-12l-258 -117h136l128 44l15 -5l45 -15l68 -24zM718 309v447h-72v-445q0 -73 -10 -123t-36 -80.5t-70.5 -44t-114.5 -13.5q-68 0 -112 13.5t-70 44t-36.5 80.5t-10.5 123v445h-71v-447q0 -92 18 -154.5t54.5 -100.5t93 -54.5t134.5 -16.5 q79 0 136.5 16.5t94.5 54.5t54.5 100.5t17.5 154.5z" />
<glyph unicode="&#xdc;" horiz-adv-x="833" d="M567 725v121h-68v-122zM334 724v122h-67v-122h67zM718 309v447h-72v-445q0 -73 -10 -123t-36 -80.5t-70.5 -44t-114.5 -13.5q-68 0 -112 13.5t-70 44t-36.5 80.5t-10.5 123v445h-71v-447q0 -92 18 -154.5t54.5 -100.5t93 -54.5t134.5 -16.5q79 0 136.5 16.5t94.5 54.5 t54.5 100.5t17.5 154.5z" />
<glyph unicode="&#xdd;" horiz-adv-x="700" d="M627 874h-163l-227 -140h117zM714 756h-86l-152 -202q-32 -42 -63 -84t-63 -85q-32 42 -63 83.5t-63 84.5l-152 203h-86l329 -437v-322h71v322z" />
<glyph unicode="&#xde;" horiz-adv-x="811" d="M775 403q0 109 -95.5 170t-298.5 61h-185v122h-71v-759h72v171h164q213 0 313.5 60t100.5 175zM703 403q0 -34 -15 -64.5t-53.5 -53.5t-105 -36.5t-170.5 -13.5h-163v331h193q94 0 155 -14t96.5 -37t49.5 -52.5t14 -59.5h-1z" />
<glyph unicode="&#xdf;" horiz-adv-x="740" d="M697 267q0 53 -15 92t-40 66.5t-57.5 44.5t-67.5 26q24 17 40 34.5t25 31.5q10 14 14.5 35.5t6.5 38.5q2 11 2.5 20.5t0.5 14.5q0 20 -6.5 48.5t-30.5 54.5t-70 44t-124 18q-90 0 -145 -31.5t-85 -78.5t-40 -101.5t-10 -100.5v-767h70v765q0 39 6.5 83t28.5 80.5 t63.5 60.5t111.5 24q59 0 91.5 -12t48.5 -28t19 -32t3 -24q0 -29 -9.5 -58t-35 -52.5t-69.5 -38.5t-114 -15h-27v-56h30q87 0 147.5 -12t98 -36t54 -59t16.5 -81q0 -42 -13 -79t-43.5 -64.5t-80.5 -43.5t-124 -16h-55v-66h56q96 0 159 23t101 60.5t53.5 86.5t15.5 100z" />
<glyph unicode="&#xe0;" horiz-adv-x="653" d="M418 610l-199 162h-123l228 -163zM595 -3v36q-11 13 -17.5 21t-10 16.5t-4.5 19t-1 28.5v280q0 95 -58 144t-184 49q-37 0 -71 -4.5t-52 -8.5t-20 -5l7 -71q2 1 16 6t46 11t73 6q52 0 86 -8.5t54 -25t27.5 -41t7.5 -57.5v-3q-105 -9 -189 -23.5t-143 -40t-90.5 -66.5 t-31.5 -103q0 -33 13 -64t43 -55t78.5 -38.5t119.5 -14.5q19 0 44 3t53 10.5t56.5 20.5t53.5 33q5 -12 12.5 -25t22.5 -30h59zM493 133q-23 -26 -50 -42t-54.5 -25t-52 -12t-40.5 -3q-61 0 -97.5 11t-56.5 27.5t-26.5 35t-6.5 33.5q0 38 21.5 65t68 46t119.5 32t176 22z" />
<glyph unicode="&#xe1;" horiz-adv-x="653" d="M558 772h-123l-199 -163h94zM595 -3v36q-11 13 -17.5 21t-10 16.5t-4.5 19t-1 28.5v280q0 95 -58 144t-184 49q-37 0 -71 -4.5t-52 -8.5t-20 -5l7 -71q2 1 16 6t46 11t73 6q52 0 86 -8.5t54 -25t27.5 -41t7.5 -57.5v-3q-105 -9 -189 -23.5t-143 -40t-90.5 -66.5 t-31.5 -103q0 -33 13 -64t43 -55t78.5 -38.5t119.5 -14.5q19 0 44 3t53 10.5t56.5 20.5t53.5 33q5 -12 12.5 -25t22.5 -30h59zM493 133q-23 -26 -50 -42t-54.5 -25t-52 -12t-40.5 -3q-61 0 -97.5 11t-56.5 27.5t-26.5 35t-6.5 33.5q0 38 21.5 65t68 46t119.5 32t176 22z" />
<glyph unicode="&#xe2;" horiz-adv-x="653" d="M548 609l-213 141h-16l-213 -142h105l116 64l116 -64zM595 -3v36q-11 13 -17.5 21t-10 16.5t-4.5 19t-1 28.5v280q0 95 -58 144t-184 49q-37 0 -71 -4.5t-52 -8.5t-20 -5l7 -71q2 1 16 6t46 11t73 6q52 0 86 -8.5t54 -25t27.5 -41t7.5 -57.5v-3q-105 -9 -189 -23.5 t-143 -40t-90.5 -66.5t-31.5 -103q0 -33 13 -64t43 -55t78.5 -38.5t119.5 -14.5q19 0 44 3t53 10.5t56.5 20.5t53.5 33q5 -12 12.5 -25t22.5 -30h59zM493 133q-23 -26 -50 -42t-54.5 -25t-52 -12t-40.5 -3q-61 0 -97.5 11t-56.5 27.5t-26.5 35t-6.5 33.5q0 38 21.5 65t68 46 t119.5 32t176 22z" />
<glyph unicode="&#xe3;" horiz-adv-x="653" d="M498 682l-46 46q-21 -24 -32.5 -29.5t-27.5 -5.5q-13 0 -26 2.5t-20 4.5l-20 6q-18 6 -34 8t-28 2q-26 0 -52 -10.5t-54 -45.5l46 -46q21 24 32.5 29.5t27.5 5.5q13 0 26 -2.5t20 -4.5l20 -6q18 -6 34 -8t28 -2q26 0 52 10.5t54 45.5zM595 -3v36q-11 13 -17.5 21 t-10 16.5t-4.5 19t-1 28.5v280q0 95 -58 144t-184 49q-37 0 -71 -4.5t-52 -8.5t-20 -5l7 -71q2 1 16 6t46 11t73 6q52 0 86 -8.5t54 -25t27.5 -41t7.5 -57.5v-3q-105 -9 -189 -23.5t-143 -40t-90.5 -66.5t-31.5 -103q0 -33 13 -64t43 -55t78.5 -38.5t119.5 -14.5q19 0 44 3 t53 10.5t56.5 20.5t53.5 33q5 -12 12.5 -25t22.5 -30h59zM493 133q-23 -26 -50 -42t-54.5 -25t-52 -12t-40.5 -3q-61 0 -97.5 11t-56.5 27.5t-26.5 35t-6.5 33.5q0 38 21.5 65t68 46t119.5 32t176 22z" />
<glyph unicode="&#xe4;" horiz-adv-x="653" d="M475 610v126h-68v-127zM246 609v127h-67v-127h67zM595 -3v36q-11 13 -17.5 21t-10 16.5t-4.5 19t-1 28.5v280q0 95 -58 144t-184 49q-37 0 -71 -4.5t-52 -8.5t-20 -5l7 -71q2 1 16 6t46 11t73 6q52 0 86 -8.5t54 -25t27.5 -41t7.5 -57.5v-3q-105 -9 -189 -23.5t-143 -40 t-90.5 -66.5t-31.5 -103q0 -33 13 -64t43 -55t78.5 -38.5t119.5 -14.5q19 0 44 3t53 10.5t56.5 20.5t53.5 33q5 -12 12.5 -25t22.5 -30h59zM493 133q-23 -26 -50 -42t-54.5 -25t-52 -12t-40.5 -3q-61 0 -97.5 11t-56.5 27.5t-26.5 35t-6.5 33.5q0 38 21.5 65t68 46t119.5 32 t176 22z" />
<glyph unicode="&#xe5;" horiz-adv-x="653" d="M421 695q0 22 -10 38.5t-25 27.5t-33 16t-34 5t-34 -5t-33 -16t-25 -27.5t-10 -38.5q0 -23 9.5 -39t24.5 -27t33 -16t34 -5t34 5t33.5 16t25.5 27t10 39zM595 -3v36q-11 13 -17.5 21t-10 16.5t-4.5 19t-1 28.5v280q0 95 -58 144t-184 49q-37 0 -71 -4.5t-52 -8.5t-20 -5 l7 -71q2 1 16 6t46 11t73 6q52 0 86 -8.5t54 -25t27.5 -41t7.5 -57.5v-3q-105 -9 -189 -23.5t-143 -40t-90.5 -66.5t-31.5 -103q0 -33 13 -64t43 -55t78.5 -38.5t119.5 -14.5q19 0 44 3t53 10.5t56.5 20.5t53.5 33q5 -12 12.5 -25t22.5 -30h59zM351 695q0 -5 -5.5 -13 t-26.5 -8q-22 0 -28.5 8t-6.5 13q0 6 7 13.5t27 7.5t27 -7.5t7 -13.5h-1zM494 133q-23 -26 -50.5 -42t-55 -25t-52 -12t-40.5 -3q-61 0 -97.5 11t-56.5 27.5t-26.5 35t-6.5 33.5q0 38 21.5 65t68 46t119.5 32t176 22v-190z" />
<glyph unicode="&#xe6;" horiz-adv-x="1130" d="M1099 43l-15 68q-10 -3 -40 -13t-69.5 -20.5t-85 -18.5t-86.5 -8q-39 0 -79.5 11t-75 36.5t-58 67t-27.5 101.5h535q0 78 -20.5 134t-59.5 98q-42 44 -96.5 68t-116.5 24q-90 0 -155 -34.5t-102 -87.5q-8 28 -24.5 50.5t-43.5 38.5t-66.5 24.5t-93.5 8.5 q-60 0 -96.5 -3.5t-56.5 -9t-27.5 -12.5t-10.5 -14l16 -48l9 3.5t30 7t54 7t81 3.5q54 0 88.5 -9t53.5 -26t26 -41.5t7 -55.5v-3q-105 -9 -189 -23.5t-143 -40t-90.5 -66.5t-31.5 -103q0 -33 13 -64t43 -55t78.5 -38.5t119.5 -14.5q79 0 146 29t118 78q27 -33 60 -54 t66.5 -33t65.5 -16t57 -4q32 0 72 6t77.5 14.5t70.5 17t52 14.5t20 6zM1024 334h-460q4 36 21.5 70t47.5 61t73 43.5t99 16.5q45 0 82.5 -15.5t66 -42t46.5 -61.5t24 -73v1zM523 149q-38 -39 -97 -68.5t-130 -29.5q-61 0 -97.5 11t-56.5 27.5t-26.5 35t-6.5 33.5 q0 38 21.5 65t68 46t119.5 32t176 22v-28q0 -83 29 -146z" />
<glyph unicode="&#xe7;" horiz-adv-x="673" d="M648 141l-62 31q-17 -27 -37 -49.5t-46 -38t-59 -24.5t-77 -9q-48 0 -94 13.5t-81 42.5t-56.5 74t-21.5 107q0 59 21.5 103.5t57 74t81 44.5t93.5 15q39 0 69 -6.5t54 -19t44 -32t39 -45.5l60 35q-51 67 -112 100.5t-154 33.5q-59 0 -117 -18t-103.5 -55.5t-73.5 -94.5 t-28 -135q0 -71 22 -124.5t59.5 -90.5t87 -58t103.5 -27l-34 -43l47 -25q11 3 26.5 6.5t29.5 4t24 -3.5t10 -17q0 -8 -6.5 -12.5t-16 -6.5t-21 -2.5t-21.5 -0.5q-23 0 -43.5 5.5t-46.5 18.5l-39 -54q34 -17 63.5 -26.5t65.5 -9.5q23 0 46.5 4.5t42.5 15t31 27.5t12 41 q0 37 -22.5 54.5t-49.5 23.5q44 5 79 18t62.5 33t50 46t41.5 56z" />
<glyph unicode="&#xe8;" horiz-adv-x="682" d="M432 610l-199 162h-123l228 -163zM650 266q0 83 -22.5 139t-57.5 94q-43 45 -97.5 68.5t-115.5 23.5q-69 0 -122.5 -21t-95.5 -57q-45 -39 -69.5 -94t-24.5 -124q0 -76 23.5 -132t63.5 -95q46 -44 105 -63.5t120 -19.5q32 0 72 6t77.5 14.5t70.5 17t52 14.5t20 6l-15 68 q-10 -3 -39.5 -13t-69 -20.5t-84.5 -18.5t-86 -8q-39 0 -79.5 11t-75 36.5t-58 67t-27.5 101.5zM576 334h-460q4 39 23 73.5t50.5 61t74 41.5t93.5 15q45 0 82.5 -15.5t66 -42t46.5 -61.5t24 -73v1z" />
<glyph unicode="&#xe9;" horiz-adv-x="682" d="M572 772h-123l-199 -163h94zM650 266q0 83 -22.5 139t-57.5 94q-43 45 -97.5 68.5t-115.5 23.5q-69 0 -122.5 -21t-95.5 -57q-45 -39 -69.5 -94t-24.5 -124q0 -76 23.5 -132t63.5 -95q46 -44 105 -63.5t120 -19.5q32 0 72 6t77.5 14.5t70.5 17t52 14.5t20 6l-15 68 q-10 -3 -39.5 -13t-69 -20.5t-84.5 -18.5t-86 -8q-39 0 -79.5 11t-75 36.5t-58 67t-27.5 101.5zM576 334h-460q4 39 23 73.5t50.5 61t74 41.5t93.5 15q45 0 82.5 -15.5t66 -42t46.5 -61.5t24 -73v1z" />
<glyph unicode="&#xea;" horiz-adv-x="682" d="M562 589l-213 141h-16l-213 -142h105l116 64l116 -64zM650 266q0 83 -22.5 139t-57.5 94q-43 45 -97.5 68.5t-115.5 23.5q-69 0 -122.5 -21t-95.5 -57q-45 -39 -69.5 -94t-24.5 -124q0 -76 23.5 -132t63.5 -95q46 -44 105 -63.5t120 -19.5q32 0 72 6t77.5 14.5t70.5 17 t52 14.5t20 6l-15 68q-10 -3 -39.5 -13t-69 -20.5t-84.5 -18.5t-86 -8q-39 0 -79.5 11t-75 36.5t-58 67t-27.5 101.5zM576 334h-460q4 39 23 73.5t50.5 61t74 41.5t93.5 15q45 0 82.5 -15.5t66 -42t46.5 -61.5t24 -73v1z" />
<glyph unicode="&#xeb;" horiz-adv-x="682" d="M489 610v126h-68v-127zM260 609v127h-67v-127h67zM650 266q0 83 -22.5 139t-57.5 94q-43 45 -97.5 68.5t-115.5 23.5q-69 0 -122.5 -21t-95.5 -57q-45 -39 -69.5 -94t-24.5 -124q0 -76 23.5 -132t63.5 -95q46 -44 105 -63.5t120 -19.5q32 0 72 6t77.5 14.5t70.5 17 t52 14.5t20 6l-15 68q-10 -3 -39.5 -13t-69 -20.5t-84.5 -18.5t-86 -8q-39 0 -79.5 11t-75 36.5t-58 67t-27.5 101.5zM576 334h-460q4 39 23 73.5t50.5 61t74 41.5t93.5 15q45 0 82.5 -15.5t66 -42t46.5 -61.5t24 -73v1z" />
<glyph unicode="&#xec;" horiz-adv-x="280" d="M271 600l-199 162h-123l228 -163zM174 -3v582h-69v-582h69z" />
<glyph unicode="&#xed;" horiz-adv-x="280" d="M331 762h-123l-199 -163h94zM175 -3v582h-70v-582h70z" />
<glyph unicode="&#xee;" horiz-adv-x="280" d="M361 589l-213 141h-16l-213 -142h105l116 64l116 -64zM174 -3v582h-69v-582h69z" />
<glyph unicode="&#xef;" horiz-adv-x="280" d="M288 610v126h-68v-127zM59 609v127h-67v-127h67zM175 -3v582h-70v-582h70z" />
<glyph unicode="&#xf0;" horiz-adv-x="739" d="M694 334q0 59 -17.5 120t-50.5 114q-20 31 -47.5 60.5t-63.5 55.5l146 45l-61 49l-160 -49q-27 12 -74 21.5t-99 16.5t-101.5 12t-81.5 7l-25 -58q109 -5 173 -13.5t102 -18.5l-197 -60l64 -48l231 71q57 -32 88.5 -64.5t48.5 -59.5l3 -4q-45 32 -97.5 46t-105.5 14 q-67 0 -126 -20.5t-103 -59t-69.5 -95t-25.5 -128.5q0 -60 20 -115t60.5 -97t101.5 -66.5t142 -24.5q76 0 136.5 23t100.5 68q19 21 35 44t28 53t18.5 69t6.5 92zM624 302q0 -44 -13 -88.5t-42.5 -80.5t-78 -59t-119.5 -23q-66 0 -114.5 19.5t-80 52.5t-47 76t-15.5 89 q0 55 19.5 99t53.5 75t81 47t102 16q61 0 109 -19t80 -50.5t49 -71.5t17 -82h-1z" />
<glyph unicode="&#xf1;" horiz-adv-x="721" d="M532 682l-46 46q-21 -24 -32.5 -29.5t-27.5 -5.5q-13 0 -26 2.5t-20 4.5l-20 6q-18 6 -34 8t-28 2q-26 0 -52 -10.5t-54 -45.5l46 -46q21 24 32.5 29.5t27.5 5.5q13 0 26 -2.5t20 -4.5l20 -6q18 -6 34 -8t28 -2q26 0 52 10.5t54 45.5zM631 -3v400q0 46 -12 78.5t-37 58.5 q-55 57 -161 57q-72 0 -146 -29q-56 -22 -113 -61q1 14 1.5 33t1 31t0.5 14h-70v-582h70v426q13 10 29.5 21.5t34 22t35 19.5t32.5 14q70 25 123 25q46 0 72.5 -11.5t41.5 -25.5q17 -17 23 -40.5t6 -51.5v-399h69z" />
<glyph unicode="&#xf2;" horiz-adv-x="739" d="M461 610l-199 162h-123l228 -163zM694 287q0 72 -25.5 128.5t-69.5 95.5t-103 59.5t-126 20.5t-126 -20.5t-103.5 -59t-70 -95t-25.5 -128.5q0 -60 20.5 -115t61 -97t101.5 -66.5t142 -24.5q84 0 145 26t100.5 68t59 96.5t19.5 111.5zM624 287q0 -47 -15.5 -89.5 t-46.5 -75.5t-79 -52.5t-112 -19.5q-66 0 -114.5 19.5t-80 52.5t-47 76t-15.5 89q0 55 19.5 99t53.5 75t81 47t102 16t101.5 -16t80.5 -47t53.5 -75t19.5 -99h-1z" />
<glyph unicode="&#xf3;" horiz-adv-x="739" d="M601 772h-123l-199 -163h94zM694 287q0 72 -25.5 128.5t-69.5 95.5t-103 59.5t-126 20.5t-126 -20.5t-103.5 -59t-70 -95t-25.5 -128.5q0 -60 20.5 -115t61 -97t101.5 -66.5t142 -24.5q84 0 145 26t100.5 68t59 96.5t19.5 111.5zM624 287q0 -47 -15.5 -89.5t-46.5 -75.5 t-79 -52.5t-112 -19.5q-66 0 -114.5 19.5t-80 52.5t-47 76t-15.5 89q0 55 19.5 99t53.5 75t81 47t102 16t101.5 -16t80.5 -47t53.5 -75t19.5 -99h-1z" />
<glyph unicode="&#xf4;" horiz-adv-x="739" d="M591 589l-213 141h-16l-213 -142h105l116 64l116 -64zM694 287q0 72 -25.5 128.5t-69.5 95.5t-103 59.5t-126 20.5t-126 -20.5t-103.5 -59t-70 -95t-25.5 -128.5q0 -60 20.5 -115t61 -97t101.5 -66.5t142 -24.5q84 0 145 26t100.5 68t59 96.5t19.5 111.5zM624 287 q0 -47 -15.5 -89.5t-46.5 -75.5t-79 -52.5t-112 -19.5q-66 0 -114.5 19.5t-80 52.5t-47 76t-15.5 89q0 55 19.5 99t53.5 75t81 47t102 16t101.5 -16t80.5 -47t53.5 -75t19.5 -99h-1z" />
<glyph unicode="&#xf5;" horiz-adv-x="739" d="M541 682l-46 46q-21 -24 -32.5 -29.5t-27.5 -5.5q-13 0 -26 2.5t-20 4.5l-20 6q-18 6 -34 8t-28 2q-26 0 -52 -10.5t-54 -45.5l46 -46q21 24 32.5 29.5t27.5 5.5q13 0 26 -2.5t20 -4.5l20 -6q18 -6 34 -8t28 -2q26 0 52 10.5t54 45.5zM694 287q0 72 -25.5 128.5 t-69.5 95.5t-103 59.5t-126 20.5t-126 -20.5t-103.5 -59t-70 -95t-25.5 -128.5q0 -60 20.5 -115t61 -97t101.5 -66.5t142 -24.5q84 0 145 26t100.5 68t59 96.5t19.5 111.5zM624 287q0 -47 -15.5 -89.5t-46.5 -75.5t-79 -52.5t-112 -19.5q-66 0 -114.5 19.5t-80 52.5t-47 76 t-15.5 89q0 55 19.5 99t53.5 75t81 47t102 16t101.5 -16t80.5 -47t53.5 -75t19.5 -99h-1z" />
<glyph unicode="&#xf6;" horiz-adv-x="739" d="M527 610v126h-67v-127zM299 609v127h-67v-127h67zM703 287q0 72 -25.5 128.5t-69.5 95.5t-103 59.5t-126 20.5t-126 -20.5t-103 -59t-69.5 -95t-25.5 -128.5q0 -60 20 -115t60.5 -97t101.5 -66.5t142 -24.5q84 0 145 26t100.5 68t59 96.5t19.5 111.5zM634 287 q0 -47 -15.5 -89.5t-47 -75.5t-79 -52.5t-112.5 -19.5q-66 0 -114 19.5t-79.5 52.5t-47 76t-15.5 89q0 55 19 99t53 75t81 47t102 16t101.5 -16t80.5 -47t53.5 -75t19.5 -99z" />
<glyph unicode="&#xf7;" horiz-adv-x="800" d="M443 417q0 17 -12.5 30t-29.5 13q-18 0 -31 -12.5t-13 -30.5t12.5 -30.5t30.5 -12.5t30.5 12.5t12.5 30.5zM682 243v66h-562v-66h562zM444 135q0 17 -12.5 30t-29.5 13q-18 0 -31 -12.5t-13 -30.5t12.5 -30.5t30.5 -12.5t30.5 12.5t12.5 30.5z" />
<glyph unicode="&#xf8;" horiz-adv-x="739" d="M738 550l-43 51l-102 -87q-35 32 -88.5 54t-133.5 22q-68 0 -127 -20.5t-103.5 -59t-70 -95t-25.5 -128.5q0 -48 14 -93t44 -87l-102 -83l43 -51l102 87q14 -13 34.5 -26.5t47.5 -24.5t61.5 -18t78.5 -7q84 0 145.5 26t101.5 68.5t59.5 97t19.5 111.5q0 48 -14 93t-44 87 zM546 474l-393 -328q-14 21 -26.5 55.5t-12.5 85.5q0 55 19 99t53.5 75t82 47t103.5 16q34 0 64 -5.5t53 -14.5q20 -8 33 -15t24 -15zM625 287q0 -46 -15 -89t-46.5 -76t-80 -52.5t-115.5 -19.5q-35 0 -65.5 5.5t-52.5 14.5q-19 8 -32.5 15t-24.5 15l394 328 q14 -21 26 -55.5t12 -85.5z" />
<glyph unicode="&#xf9;" horiz-adv-x="721" d="M452 600l-199 162h-123l228 -163zM626 -3v582h-70v-426q-35 -26 -70 -45t-61 -30q-33 -14 -64.5 -20.5t-58.5 -6.5q-48 0 -74 12t-39 25q-18 17 -24 39.5t-6 52.5v399h-69v-400q0 -46 12 -78.5t37 -58.5q55 -57 161 -57q71 0 146 30q29 11 56 26t57 35q-1 -14 -1.5 -33.5 t-1 -31.5t-0.5 -14h70z" />
<glyph unicode="&#xfa;" horiz-adv-x="721" d="M592 762h-123l-199 -163h94zM626 -3v582h-70v-426q-35 -26 -70 -45t-61 -30q-33 -14 -64.5 -20.5t-58.5 -6.5q-48 0 -74 12t-39 25q-18 17 -24 39.5t-6 52.5v399h-69v-400q0 -46 12 -78.5t37 -58.5q55 -57 161 -57q71 0 146 30q29 11 56 26t57 35q-1 -14 -1.5 -33.5 t-1 -31.5t-0.5 -14h70z" />
<glyph unicode="&#xfb;" horiz-adv-x="721" d="M582 619l-213 141h-16l-213 -142h105l116 64l116 -64zM626 -3v582h-70v-426q-35 -26 -70 -45t-61 -30q-33 -14 -64.5 -20.5t-58.5 -6.5q-48 0 -74 12t-39 25q-18 17 -24 39.5t-6 52.5v399h-69v-400q0 -46 12 -78.5t37 -58.5q55 -57 161 -57q71 0 146 30q29 11 56 26 t57 35q-1 -14 -1.5 -33.5t-1 -31.5t-0.5 -14h70z" />
<glyph unicode="&#xfc;" horiz-adv-x="721" d="M509 610v126h-68v-127zM280 609v127h-67v-127h67zM626 -3v582h-70v-426q-35 -26 -70 -45t-61 -30q-33 -14 -64.5 -20.5t-58.5 -6.5q-48 0 -74 12t-39 25q-18 17 -24 39.5t-6 52.5v399h-69v-400q0 -46 12 -78.5t37 -58.5q55 -57 161 -57q71 0 146 30q29 11 56 26t57 35 q-1 -14 -1.5 -33.5t-1 -31.5t-0.5 -14h70z" />
<glyph unicode="&#xfd;" horiz-adv-x="661" d="M602 732h-123l-199 -163h94zM663 579h-74l-112 -260q-22 -53 -45.5 -107t-46.5 -109l-136 217l-162 259h-81l346 -551l-46 -106q-23 -50 -53 -79q-41 -41 -113 -41q-19 0 -34.5 2.5t-29.5 6.5q-14 5 -28.5 12.5t-37.5 22.5l-35 -60q28 -17 44.5 -25t36.5 -13 q17 -5 37.5 -8.5t46.5 -3.5q54 0 92.5 16.5t65.5 41.5q28 25 44 52.5t26 50.5z" />
<glyph unicode="&#xfe;" horiz-adv-x="739" d="M689 290q0 64 -21.5 116t-57.5 91q-88 94 -233 94q-43 0 -79 -8t-67 -22q-20 -8 -36.5 -17.5t-30.5 -20.5v251h-69v-1025h70v306q18 -13 36.5 -24t35.5 -19q44 -18 79.5 -22.5t60.5 -4.5q76 0 135 26t96 66q44 48 62.5 103t18.5 110zM619 290q0 -55 -17 -96t-44 -70 q-35 -38 -82 -55.5t-99 -17.5q-36 0 -65 6.5t-50 15.5q-20 9 -44.5 24.5t-53.5 42.5v297q21 21 45.5 37.5t48.5 27.5q30 14 59.5 18.5t59.5 4.5q61 0 106.5 -20t75.5 -53q30 -32 45.5 -74t15.5 -88h-1z" />
<glyph unicode="&#xff;" horiz-adv-x="661" d="M502 610v126h-68v-127zM273 609v127h-67v-127h67zM663 578h-74l-112 -259q-22 -53 -45.5 -107t-46.5 -109l-136 217l-162 259h-81l346 -551l-46 -106q-23 -50 -53 -79q-41 -41 -113 -41q-19 0 -34.5 2.5t-29.5 6.5q-14 5 -28.5 12.5t-37.5 22.5l-35 -60q28 -17 44.5 -25 t36.5 -13q17 -5 37.5 -8.5t46.5 -3.5q54 0 92.5 16.5t65.5 41.5q28 25 44 52.5t26 50.5z" />
<glyph unicode="&#x152;" horiz-adv-x="1231" d="M1166 -3v69h-458v293h361v68h-361v261h444v68h-478q-18 4 -58.5 9t-115.5 5q-100 0 -182 -27t-140.5 -77.5t-90.5 -123.5t-32 -166q0 -92 32 -165t90.5 -123.5t140.5 -77.5t182 -27q78 0 118 5.5t56 9.5zM637 46q0 -6 -36.5 -0.5t-99.5 5.5q-86 0 -155.5 22t-118.5 63.5 t-75 102t-26 137.5t26 138t75 103t118.5 64t155.5 22q63 0 100 5t37 -1z" />
<glyph unicode="&#x153;" horiz-adv-x="1232" d="M1200 267q0 82 -22.5 138t-57.5 94q-43 45 -97.5 68.5t-115.5 23.5q-53 0 -97.5 -12.5t-79.5 -34.5t-60.5 -50.5t-41.5 -59.5q-13 26 -34.5 54t-54.5 51t-79 37.5t-108 14.5q-64 0 -120 -21t-97.5 -60.5t-65.5 -95.5t-24 -126q0 -66 22 -121.5t62.5 -96t97 -63 t125.5 -22.5q56 0 100.5 12t79 33t59 49.5t40.5 60.5q23 -47 56.5 -77t71.5 -47t76.5 -24t71.5 -7q32 0 72 6t77.5 14.5t70.5 17t52 14.5t20 6l-15 68q-10 -3 -39.5 -13t-69 -20.5t-84.5 -18.5t-86 -8q-38 0 -78.5 11t-75 36.5t-59 67t-28.5 101.5h536zM1126 333h-461 q4 33 21 67t47 61.5t73 45t100 17.5q45 0 82.5 -15.5t66.5 -42t47 -61.5t24 -73v1zM594 288q0 -60 -17.5 -104.5t-49.5 -74t-76.5 -44t-97.5 -14.5q-54 0 -98 17.5t-75.5 49t-48.5 75t-17 94.5q0 63 21.5 108t55.5 74t76.5 42.5t85.5 13.5q54 0 98.5 -16.5t76.5 -47.5 t49.5 -74.5t17.5 -98.5h-1z" />
<glyph unicode="&#x178;" horiz-adv-x="700" d="M500 755v121h-68v-122zM267 754v122h-67v-122h67zM714 756h-86l-152 -202q-32 -42 -63 -84t-63 -85q-32 42 -63 83.5t-63 84.5l-152 203h-86l329 -437v-322h71v322z" />
<glyph unicode="&#x2c6;" d="M471 589l-213 141h-16l-213 -142h105l116 64l116 -64z" />
<glyph unicode="&#x2dc;" d="M421 682l-46 46q-21 -24 -32.5 -29.5t-27.5 -5.5q-13 0 -26 2.5t-20 4.5l-20 6q-18 6 -34 8t-28 2q-26 0 -52 -10.5t-54 -45.5l46 -46q21 24 32.5 29.5t27.5 5.5q13 0 26 -2.5t20 -4.5l20 -6q18 -6 34 -8t28 -2q26 0 52 10.5t54 45.5z" />
<glyph unicode="&#x2000;" horiz-adv-x="462" />
<glyph unicode="&#x2001;" horiz-adv-x="924" />
<glyph unicode="&#x2002;" horiz-adv-x="462" />
<glyph unicode="&#x2003;" horiz-adv-x="924" />
<glyph unicode="&#x2004;" horiz-adv-x="308" />
<glyph unicode="&#x2005;" horiz-adv-x="231" />
<glyph unicode="&#x2006;" horiz-adv-x="154" />
<glyph unicode="&#x2007;" horiz-adv-x="154" />
<glyph unicode="&#x2008;" horiz-adv-x="115" />
<glyph unicode="&#x2009;" horiz-adv-x="184" />
<glyph unicode="&#x200a;" horiz-adv-x="51" />
<glyph unicode="&#x2010;" horiz-adv-x="399" d="M323 325v67h-332v-67h332z" />
<glyph unicode="&#x2011;" horiz-adv-x="399" d="M323 325v67h-332v-67h332z" />
<glyph unicode="&#x2012;" horiz-adv-x="399" d="M323 325v67h-332v-67h332z" />
<glyph unicode="&#x2013;" horiz-adv-x="600" d="M595 240v65h-590v-66z" />
<glyph unicode="&#x2014;" horiz-adv-x="1200" d="M1195 240v65h-1190v-66z" />
<glyph unicode="&#x2018;" horiz-adv-x="230" d="M160 550l-41 206h-76l56 -207z" />
<glyph unicode="&#x2019;" horiz-adv-x="230" d="M187 756h-76l-41 -207h61z" />
<glyph unicode="&#x201a;" horiz-adv-x="589" d="M658 747q-34 27 -57.5 40t-44.5 21q-33 12 -69 17t-75 5q-105 0 -173 -40q-44 -26 -66.5 -68.5t-22.5 -96.5v-878h70v877q0 42 16 68.5t42 42.5t60 22.5t74 6.5q69 0 121 -19q23 -8 41 -20t44 -40z" />
<glyph unicode="&#x201c;" horiz-adv-x="353" d="M283 550l-41 206h-76l56 -207zM160 549l-41 207h-76l56 -207h61z" />
<glyph unicode="&#x201d;" horiz-adv-x="353" d="M310 756h-76l-41 -207h61zM187 756h-76l-41 -207h61z" />
<glyph unicode="&#x201e;" horiz-adv-x="353" d="M310 124h-76l-41 -207h61zM187 124h-76l-41 -207h61z" />
<glyph unicode="&#x2022;" horiz-adv-x="570" d="M371 363q0 18 -6.5 33.5t-18.5 27t-27.5 18.5t-33.5 7t-33.5 -6.5t-27 -18.5t-18.5 -27.5t-7 -33.5q0 -36 25 -61t61 -25t61 25t25 61z" />
<glyph unicode="&#x2026;" horiz-adv-x="1200" d="M1035 -3v130h-70v-130h70zM634 -3v130h-69v-130h69zM234 -3v130h-69v-130h69z" />
<glyph unicode="&#x202f;" horiz-adv-x="184" />
<glyph unicode="&#x2039;" horiz-adv-x="382" d="M302 25v90l-156 156l156 156v90l-244 -235v-22z" />
<glyph unicode="&#x203a;" horiz-adv-x="382" d="M324 260v22l-244 235v-90l156 -156l-156 -156v-90z" />
<glyph unicode="&#x205f;" horiz-adv-x="231" />
<glyph unicode="&#x2122;" horiz-adv-x="1170" d="M1030 351v405h-66l-126 -181q-25 -35 -50 -71t-51 -73q-25 36 -49.5 72t-50.5 72l-126 181h-65v-406h66v196v96q19 -28 37.5 -55t37.5 -54l127 -183h46l126 181q20 27 38.5 54.5t38.5 55.5q-1 -24 -1 -48v-47v-196zM428 692v64h-419v-65h177v-341h67v342h175z" />
<glyph unicode="&#xe000;" horiz-adv-x="580" d="M0 580h580v-580h-580v580z" />
</font>
</defs>
</svg>
