<?xml version="1.0" standalone="no"?>
<!DOCTYPE svg PUBLIC "-//W3C//DTD SVG 1.1//EN" "http://www.w3.org/Graphics/SVG/1.1/DTD/svg11.dtd" >
<svg xmlns="http://www.w3.org/2000/svg">
<metadata></metadata>
<defs>
<font id="gudearegular" horiz-adv-x="1060" >
<font-face units-per-em="2048" ascent="1638" descent="-410" />
<missing-glyph horiz-adv-x="512" />
<glyph horiz-adv-x="2048" />
<glyph horiz-adv-x="2048" />
<glyph unicode="&#xd;" horiz-adv-x="2048" />
<glyph horiz-adv-x="950" d="M41 561l684 684v-1372z" />
<glyph unicode=" "  horiz-adv-x="512" />
<glyph unicode="&#x09;" horiz-adv-x="512" />
<glyph unicode="&#xa0;" horiz-adv-x="512" />
<glyph unicode="!" horiz-adv-x="544" d="M195 0v190h153v-190h-153zM197 389v1047h153v-1047h-153z" />
<glyph unicode="&#x22;" horiz-adv-x="774" d="M113 905v531h153v-531h-153zM506 905v531h153v-531h-153z" />
<glyph unicode="#" horiz-adv-x="1267" d="M61 391v133h250l47 428h-243v133h254l37 349h155l-37 -349h326l37 349h153l-32 -349h196v-133h-213l-43 -428h201v-133h-215l-39 -391h-156l41 391h-325l-41 -391h-156l41 391h-238zM467 524h326l47 428h-326z" />
<glyph unicode="$" horiz-adv-x="1040" d="M127 162l45 102q18 -9 50 -21.5t118 -33.5t158 -21q135 0 211.5 60t76.5 174q0 61 -35 106.5t-91 74t-123.5 53.5t-135 55.5t-123.5 69t-91 104t-35 151.5q0 141 78.5 222t207.5 94v178h133v-178q55 -5 119.5 -19t101.5 -25l37 -12l-28 -122l-61 20q-139 39 -240 39 q-102 0 -156.5 -49t-54.5 -144q0 -48 21.5 -86t58.5 -63t84.5 -46t100 -39.5t104.5 -38.5t99.5 -48.5t84.5 -64t58.5 -90t21.5 -122.5q0 -160 -92 -258t-259 -118v-189h-133v184q-162 10 -311 101z" />
<glyph unicode="%" horiz-adv-x="1509" d="M92 1071q0 70 14.5 131t45 112t83.5 81t123 30q77 0 132.5 -29.5t85 -81.5t42.5 -111.5t13 -131.5q0 -346 -277 -346q-132 0 -197 93.5t-65 252.5zM215 1073q0 -111 35 -178.5t108 -67.5q150 0 150 246q0 111 -37.5 180.5t-110.5 69.5q-70 0 -107.5 -70t-37.5 -180z M227 2l836 1407h160l-836 -1407h-160zM850 334q0 70 14.5 131t45 112t83.5 81t123 30q77 0 132.5 -29.5t85 -81.5t42.5 -111.5t13 -131.5q0 -346 -277 -346q-132 0 -197 93.5t-65 252.5zM973 336q0 -111 35 -178.5t108 -67.5q150 0 150 246q0 111 -37.5 180.5t-110.5 69.5 q-70 0 -107.5 -70t-37.5 -180z" />
<glyph unicode="&#x26;" horiz-adv-x="1548" d="M121 395q0 71 20 126t64 98.5t95 75.5t132 71q-121 108 -178 184t-57 154q0 154 111 252t282 98q176 0 279.5 -90.5t103.5 -237.5q0 -117 -72 -204t-233 -174l346 -336q65 133 65 327h148q-7 -125 -24 -214t-30.5 -125t-42.5 -99l293 -299h-204l-168 182 q-70 -84 -194.5 -141t-254.5 -57q-232 0 -356.5 110.5t-124.5 298.5zM274 383q0 -118 88.5 -191t239.5 -73q106 0 205.5 50t146.5 114l-419 401q-261 -120 -261 -301zM350 1133q0 -31 10 -60t36.5 -61.5t44 -51.5t63 -62t63.5 -60q119 60 188.5 130.5t69.5 168.5 q0 91 -69 137.5t-172 46.5q-102 0 -168 -49.5t-66 -138.5z" />
<glyph unicode="'" horiz-adv-x="378" d="M113 752v530h153v-530h-153z" />
<glyph unicode="(" horiz-adv-x="577" d="M160 637q0 239 64.5 480t187.5 448l135 -27q-234 -431 -234 -907q0 -439 230 -873l-142 -24q-241 420 -241 903z" />
<glyph unicode=")" horiz-adv-x="577" d="M45 1538l135 27q123 -207 187.5 -448t64.5 -480q0 -481 -242 -903l-141 24q230 434 230 873q0 476 -234 907z" />
<glyph unicode="*" horiz-adv-x="880" d="M84 993l266 129l-264 129l72 113l233 -168l-20 293h133l-27 -293l244 166l63 -117l-266 -119l266 -122l-63 -119l-244 166l27 -293h-133l20 293l-244 -166z" />
<glyph unicode="+" horiz-adv-x="960" d="M57 537v133h336v409h154v-409h354v-133h-354v-396h-154v396h-336z" />
<glyph unicode="," horiz-adv-x="499" d="M51 -319l178 546l154 -49l-231 -530z" />
<glyph unicode="-" horiz-adv-x="587" d="M98 520v154h391v-154h-391z" />
<glyph unicode="." horiz-adv-x="374" d="M111 0v217h153v-217h-153z" />
<glyph unicode="/" horiz-adv-x="1005" d="M96 -297l666 1935h162l-664 -1935h-164z" />
<glyph unicode="0" horiz-adv-x="1187" d="M113 721q0 116 13.5 217t48.5 198t89 165.5t141.5 110.5t200.5 42q95 0 170.5 -28.5t126 -82t85.5 -120.5t54 -153t27 -169t8 -180q0 -116 -13.5 -216t-48 -197.5t-89 -166.5t-142.5 -111t-202 -42q-82 0 -149 22t-115 60t-84.5 94t-59 118t-36.5 137.5t-19.5 147.5 t-5.5 154zM266 721q0 -127 16.5 -229.5t53 -189t102.5 -134t158 -47.5q91 0 157 47.5t102 133t52.5 187.5t16.5 228v8q0 596 -328 596q-73 0 -130.5 -32.5t-94.5 -87t-61 -132.5t-34 -163.5t-10 -184.5z" />
<glyph unicode="1" horiz-adv-x="1062" d="M57 1169l428 265h154v-1301h313v-133h-866v133h399v1149l-352 -227z" />
<glyph unicode="2" horiz-adv-x="1073" d="M117 0v147q344 350 500.5 563t156.5 369q0 70 -21 119t-59.5 75t-84 37t-103.5 11q-76 0 -159.5 -10.5t-128.5 -21.5l-46 -11l-29 119q18 6 49.5 15.5t125.5 25.5t184 16q211 0 319.5 -93.5t108.5 -256.5q0 -101 -41.5 -210.5t-127 -233t-192 -246.5t-260.5 -281h654 l-2 -133h-844z" />
<glyph unicode="3" horiz-adv-x="1081" d="M100 84l52 115q19 -9 51.5 -22t124 -34.5t170.5 -21.5q151 0 234 70t83 188q0 133 -89.5 211t-252.5 78h-194v133h194q140 0 218.5 77.5t78.5 194.5q0 121 -64.5 184.5t-209.5 63.5q-69 0 -151.5 -21t-130.5 -42l-48 -21l-29 119q6 4 18 10.5t50 23.5t77 30t96 23.5 t111 10.5q219 0 327 -97.5t108 -266.5q0 -134 -77 -233t-198 -122q142 -21 232 -109t90 -223q0 -195 -131 -305t-367 -110q-62 0 -123.5 10t-104.5 24t-77 28t-51 24z" />
<glyph unicode="4" horiz-adv-x="1105" d="M31 268v101l448 1065h154l-434 -1033h479v381h147v-381h170v-133h-170v-270h-147v270h-647z" />
<glyph unicode="5" horiz-adv-x="1142" d="M129 96l47 109q21 -9 56.5 -22.5t131.5 -36.5t175 -23q161 0 250.5 87t89.5 241q0 145 -106.5 215.5t-297.5 70.5l-270 2l49 695h731l-10 -134h-590l-23 -432q67 2 130 2q246 0 393 -105t147 -294q0 -222 -130.5 -352.5t-375.5 -130.5q-101 0 -200 27t-148 54z" />
<glyph unicode="6" horiz-adv-x="1179" d="M147 635q0 142 14.5 257.5t52 223t97.5 180t156.5 115.5t224.5 43q80 0 157 -17t115 -34l37 -17l-36 -122q-16 6 -44 15t-105 24.5t-142 15.5q-95 0 -164.5 -40t-111 -114.5t-63.5 -165.5t-30 -208q166 75 318 75q214 0 330 -106t116 -307q0 -208 -120.5 -336.5 t-325.5 -128.5q-249 0 -362.5 166.5t-113.5 480.5zM301 637q0 -255 77.5 -385.5t254.5 -130.5q128 0 205 89.5t77 225.5q0 297 -301 297q-65 0 -137 -20.5t-110 -39t-66 -36.5z" />
<glyph unicode="7" horiz-adv-x="1038" d="M53 1280v154h924v-154l-635 -1280h-170l633 1280h-752z" />
<glyph unicode="8" horiz-adv-x="1177" d="M127 379q0 60 21 116t49 94t67.5 72.5t66 51.5t54.5 32q-99 55 -155 130.5t-56 187.5q0 187 118.5 289t323.5 102q189 0 301.5 -99.5t112.5 -238.5q0 -79 -22 -150.5t-57 -122.5t-64.5 -83t-59.5 -55q54 -28 93.5 -56t74.5 -65t53.5 -84t18.5 -103q0 -194 -128.5 -301.5 t-363.5 -107.5q-113 0 -201 32t-141 87.5t-79.5 124.5t-26.5 147zM281 387q0 -118 78 -194t237 -76q137 0 227 72t90 190q0 33 -10.5 62t-27 52t-46.5 45.5t-57.5 39t-73 36t-80.5 33t-90 33.5q-25 -11 -51.5 -26t-63.5 -42.5t-64.5 -58.5t-47.5 -75t-20 -91zM324 1083 q0 -48 20 -89t50.5 -70t80.5 -57.5t95 -48.5t108 -46q11 -4 16 -6q28 21 54.5 46.5t59.5 67t53 95t20 110.5q0 102 -74 169t-195 67q-126 0 -207 -66.5t-81 -171.5z" />
<glyph unicode="9" horiz-adv-x="1140" d="M109 989q0 208 120.5 336.5t325.5 128.5q249 0 362 -166.5t113 -480.5q0 -142 -14.5 -257.5t-52 -223t-97.5 -180t-156.5 -115.5t-224.5 -43q-50 0 -100.5 7t-86.5 16.5t-64.5 19.5t-43.5 17l-14 7l37 123q16 -6 44 -15t105 -24.5t142 -15.5q94 0 163.5 40t111 114.5 t63 165.5t28.5 208q-54 -27 -138 -51.5t-177 -24.5q-214 0 -330 106.5t-116 307.5zM262 1006q0 -297 301 -297q64 0 136 20.5t110 38t68 35.5v8q0 250 -78 380t-254 130q-128 0 -205.5 -89.5t-77.5 -225.5z" />
<glyph unicode=":" horiz-adv-x="444" d="M145 0v217h154v-217h-154zM145 807v217h154v-217h-154z" />
<glyph unicode=";" horiz-adv-x="565" d="M88 -315l184 546l148 -49l-232 -530zM266 807v217h154v-217h-154z" />
<glyph unicode="&#x3c;" horiz-adv-x="1081" d="M125 551v117l803 460v-163l-654 -355l654 -358v-160z" />
<glyph unicode="=" horiz-adv-x="1187" d="M154 334v133h880v-133h-880zM154 739v133h880v-133h-880z" />
<glyph unicode="&#x3e;" horiz-adv-x="1081" d="M154 94v158l653 358l-653 355v163l802 -460v-115z" />
<glyph unicode="?" horiz-adv-x="948" d="M164 1399q163 55 297 55q165 0 259.5 -83t94.5 -226q0 -63 -18 -117.5t-47.5 -93.5t-64.5 -74.5t-70 -70t-64.5 -71t-47.5 -86t-18 -106.5v-129h-151v119q0 67 18 124.5t47 98.5t64 78.5t70 71t64 68t47 78t18 93.5q0 89 -55.5 140t-172.5 51q-135 0 -248 -39zM330 0v201 h153v-201h-153z" />
<glyph unicode="@" horiz-adv-x="1857" d="M156 428q0 1024 821 1024q723 0 723 -645q0 -149 -28 -260t-78 -183.5t-127 -117t-166.5 -62.5t-204.5 -18l-17 135q-32 -31 -52.5 -48.5t-59 -44t-81.5 -39.5t-91 -13q-119 0 -180.5 80t-61.5 208q0 123 27.5 227t71.5 173.5t99.5 118t111.5 70.5t108 22q39 0 72 -7 t59.5 -22t40.5 -24.5t35 -29.5t24 -22l33 82h94l-149 -756q64 0 118 15t105 53.5t86 98t56.5 154.5t21.5 218q0 504 -592 504q-351 0 -513.5 -209.5t-162.5 -634.5q0 -309 123.5 -450.5t400.5 -141.5h355l4 -110q-185 -17 -367 -17q-659 0 -659 672zM680 461q0 -107 39 -146 t100 -39q71 0 124.5 36t141.5 130l78 396q-4 3 -18 17t-26 23.5t-31.5 21.5t-46.5 18t-58 6q-72 0 -131 -41.5t-95.5 -109t-56.5 -148.5t-20 -164z" />
<glyph unicode="A" horiz-adv-x="1185" d="M27 0l471 1434h186l475 -1434h-172l-143 453h-514l-142 -453h-161zM369 586h440l-219 692z" />
<glyph unicode="B" horiz-adv-x="1202" d="M186 0v1434h410q218 0 327 -95.5t109 -271.5q0 -120 -78 -196.5t-211 -94.5q163 -25 255 -117.5t92 -228.5q0 -195 -134.5 -312.5t-373.5 -117.5h-396zM346 133h285q135 0 217 82.5t82 202.5q0 124 -87.5 204t-254.5 80h-242v-569zM346 834h240q71 0 135.5 26t107.5 79.5 t43 121.5q0 119 -65 176.5t-201 62.5h-260v-466z" />
<glyph unicode="C" horiz-adv-x="1196" d="M102 723q0 336 166 532.5t463 196.5q94 0 164 -13t158 -46l-37 -127q-123 53 -295 53q-216 0 -340.5 -157t-124.5 -417q0 -287 117 -455.5t329 -168.5q141 0 351 80l41 -107q-176 -106 -385 -106q-292 0 -449.5 197.5t-157.5 537.5z" />
<glyph unicode="D" horiz-adv-x="1325" d="M186 0v1434h363q152 0 279 -50t213 -138.5t134 -211.5t48 -266q0 -229 -90.5 -403t-258 -269.5t-389.5 -95.5h-299zM352 133h152q110 0 209 43t176 123.5t122.5 206t45.5 278.5q0 123 -42 222.5t-112.5 162.5t-159.5 97t-186 34h-205v-1167z" />
<glyph unicode="E" horiz-adv-x="1110" d="M186 0v1434h772v-134h-618v-454h567v-137h-567v-576h618v-133h-772z" />
<glyph unicode="F" horiz-adv-x="1044" d="M186 0v1434h775v-134h-621v-454h571v-137h-571v-709h-154z" />
<glyph unicode="G" horiz-adv-x="1323" d="M94 723q0 336 166 533.5t463 197.5q187 0 383 -74l-37 -127q-70 29 -182 48.5t-174 19.5q-216 0 -340.5 -158t-124.5 -418q0 -276 132 -450t339 -174q146 0 274 41v432h-299v133h453v-629q-193 -110 -406 -110q-297 0 -472 200.5t-175 534.5z" />
<glyph unicode="H" horiz-adv-x="1359" d="M186 0v1434h154v-623h680v623h154v-1434h-154v678h-680v-678h-154z" />
<glyph unicode="I" horiz-adv-x="526" d="M186 0v1434h154v-1434h-154z" />
<glyph unicode="J" horiz-adv-x="702" d="M2 8v129q111 -18 182 -18q54 0 90.5 27.5t55 79.5t25.5 108.5t7 132.5v846h-296v121h450v-1002q0 -221 -74.5 -333.5t-234.5 -112.5q-109 0 -205 22z" />
<glyph unicode="K" horiz-adv-x="1173" d="M186 0v1432h152v-646l598 648h188l-495 -545l508 -889h-193l-420 784l-184 -194v-590h-154z" />
<glyph unicode="L" horiz-adv-x="968" d="M186 0v1434h154v-1301h614v-133h-768z" />
<glyph unicode="M" horiz-adv-x="1509" d="M115 0v1434h172l469 -789l485 789h154v-1434h-154v1176l-461 -799l-53 2l-461 795v-1174h-151z" />
<glyph unicode="N" horiz-adv-x="1390" d="M186 0v1434h160l705 -1192v1192h153v-1436h-168l-690 1149v-1147h-160z" />
<glyph unicode="O" horiz-adv-x="1327" d="M94 727q0 155 35 285.5t103.5 230t178.5 155.5t251 56q143 0 253.5 -56t179 -155.5t103.5 -230t35 -285.5q0 -153 -35 -284.5t-103 -233.5t-179.5 -160.5t-253.5 -58.5q-115 0 -209.5 38.5t-160.5 105.5t-111 160.5t-66 202t-21 230.5zM250 727q0 -122 25 -229 t74.5 -191.5t130.5 -133t184 -48.5q106 0 187.5 49.5t130.5 135.5t73 194t24 233q0 111 -26.5 214t-76 186.5t-130 133.5t-180.5 50q-108 0 -191 -51t-130.5 -137t-71 -188.5t-23.5 -217.5z" />
<glyph unicode="P" horiz-adv-x="1107" d="M186 0v1434h410q230 0 333 -101t103 -307q0 -217 -127 -320.5t-356 -103.5h-209v-602h-154zM340 733h135q211 0 307.5 63.5t96.5 225.5q0 147 -84 214t-269 67h80h-266v-570z" />
<glyph unicode="Q" horiz-adv-x="1333" d="M94 727q0 155 35 285.5t103.5 230t178.5 155.5t251 56q143 0 253.5 -56t179 -155.5t103.5 -230t35 -285.5q0 -156 -36 -295t-105 -235l200 -207l-100 -101l-195 207q-135 -110 -335 -110q-115 0 -209.5 38.5t-160.5 106.5t-111 162t-66 203t-21 231zM250 727 q0 -123 25 -230t74.5 -192t130.5 -134.5t184 -49.5q134 0 231 78l-180 188l102 100l168 -182q94 155 94 432q0 89 -16 173t-50 159t-82 131.5t-117 89.5t-150 33q-109 0 -191.5 -51t-129.5 -138t-70 -189.5t-23 -217.5z" />
<glyph unicode="R" horiz-adv-x="1234" d="M186 2v1434h414q210 0 315 -95.5t105 -271.5q0 -123 -85.5 -225t-209.5 -119q70 -16 106 -37.5t66 -66.5t70 -140l202 -479h-161l-199 459q-56 130 -124.5 171.5t-217.5 41.5h-127v-672h-154zM340 805h231q127 0 202 74.5t75 185.5q0 118 -67 179t-189 61h-252v-500z" />
<glyph unicode="S" horiz-adv-x="1128" d="M113 100l51 117q21 -10 57 -24t133 -38t178 -24q152 0 239 68t87 196q0 55 -24.5 98.5t-66 73t-95.5 54.5t-113 47.5t-118.5 46.5t-113.5 57.5t-95.5 75t-66 103.5t-24.5 139q0 176 105.5 270t290.5 94q171 0 370 -72l-33 -137q1 0 -5 2.5t-17.5 6t-27.5 8.5t-36.5 10.5 t-43.5 11t-49 10.5t-52 8.5t-53.5 6t-52.5 2.5q-117 0 -179.5 -54t-62.5 -161q0 -61 31 -108t81 -75.5t114.5 -55.5t132 -48.5t132 -55.5t114.5 -74.5t81 -107.5t31 -153q0 -201 -125 -315.5t-355 -114.5q-115 0 -229.5 33.5t-189.5 78.5z" />
<glyph unicode="T" horiz-adv-x="1032" d="M41 1296v138h950v-138h-397v-1296h-152v1296h-401z" />
<glyph unicode="U" horiz-adv-x="1359" d="M186 528v906h156v-930q0 -183 87.5 -283t250.5 -100q158 0 248 99t90 284v930h156v-906q0 -268 -126.5 -404t-367.5 -136t-367.5 136t-126.5 404z" />
<glyph unicode="V" horiz-adv-x="1118" d="M27 1434h172l350 -1260l375 1260h168l-443 -1434h-215z" />
<glyph unicode="W" horiz-adv-x="1538" d="M27 1432h176l250 -1258l272 870h115l252 -870l258 1258h161l-340 -1432h-178l-209 831l-256 -831h-168z" />
<glyph unicode="X" horiz-adv-x="1196" d="M41 0l475 754l-432 682h195l329 -568l340 568h185l-439 -682l461 -754h-188l-365 645l-375 -645h-186z" />
<glyph unicode="Y" horiz-adv-x="1130" d="M27 1434h170l362 -664l379 664h166l-471 -789v-645h-154v645z" />
<glyph unicode="Z" horiz-adv-x="1040" d="M80 1300v134h838v-117l-650 -1182h713v-135h-899v127l655 1173h-657z" />
<glyph unicode="[" horiz-adv-x="696" d="M186 -410v2048h424v-133h-270v-1784h276v-131h-430z" />
<glyph unicode="\" horiz-adv-x="991" d="M80 1638h162l665 -1935h-164z" />
<glyph unicode="]" horiz-adv-x="696" d="M80 -279h276v1784h-270v133h424v-2048h-430v131z" />
<glyph unicode="^" horiz-adv-x="1308" d="M135 563l461 803h115l458 -803h-157l-359 654l-354 -654h-164z" />
<glyph unicode="_" horiz-adv-x="880" d="M0 -350h881v-133h-881v133z" />
<glyph unicode="`" horiz-adv-x="800" d="M156 1440l153 61l232 -289l-119 -43z" />
<glyph unicode="a" horiz-adv-x="1056" d="M102 297q0 315 527 315h84q0 97 -9.5 152.5t-39 90t-74.5 45.5t-125 11q-173 0 -283 -43l-28 119q171 57 356 57q182 0 271 -88.5t89 -271.5v-684h-90l-53 121q-95 -78 -162.5 -105.5t-158.5 -27.5q-143 0 -223.5 85t-80.5 224zM256 309q0 -83 45 -137.5t117 -54.5 q74 0 140.5 33.5t156.5 117.5v215h-92q-142 0 -223.5 -20t-112.5 -56.5t-31 -97.5z" />
<glyph unicode="b" horiz-adv-x="1118" d="M186 0v1434h154v-512q87 62 160 93.5t155 31.5q369 0 369 -531q0 -120 -24 -214t-62.5 -152t-92.5 -95.5t-109.5 -52t-117.5 -14.5q-79 0 -161 35t-135 77l-46 -100h-90zM340 219q40 -48 108.5 -74t135.5 -26q159 0 222.5 94.5t63.5 298.5q0 195 -63 298t-162 103 q-66 0 -130 -25t-97 -49t-78 -63v-557z" />
<glyph unicode="c" horiz-adv-x="886" d="M90 530q0 250 114.5 382t338.5 132q34 0 66.5 -3t63.5 -9.5t49.5 -11t50 -14t40.5 -11.5l-61 -118q-112 32 -203 32q-156 0 -224.5 -92.5t-68.5 -290.5q0 -403 289 -403q116 0 243 37l31 -121q-161 -49 -289 -49q-220 0 -330 142.5t-110 397.5z" />
<glyph unicode="d" horiz-adv-x="1110" d="M86 514q0 120 24 214t62.5 152t92.5 95.5t109.5 52t117.5 14.5q139 0 278 -100v492h154v-1434h-90l-52 117q-96 -67 -169.5 -100t-157.5 -33q-369 0 -369 530zM240 518q0 -195 63 -298t162 -103q66 0 130 25t97 49t78 63v532q-44 52 -114 88.5t-130 36.5 q-159 0 -222.5 -94.5t-63.5 -298.5z" />
<glyph unicode="e" horiz-adv-x="1001" d="M90 512q0 245 119.5 388.5t306.5 143.5q181 0 283 -119t102 -321q0 -55 -4 -125h-653q0 -83 19 -147.5t49.5 -103.5t74.5 -64.5t88.5 -35t95.5 -9.5q22 0 41 1t41.5 5t33.5 5.5t39 9.5t34.5 10t44 14t45.5 14l24 -119q-78 -27 -115 -39t-92.5 -22t-111.5 -10 q-102 0 -184.5 30t-146.5 91t-99 163.5t-35 239.5zM254 596h500q0 150 -54 232.5t-184 82.5q-69 0 -120 -25.5t-80.5 -70.5t-44.5 -99t-17 -120z" />
<glyph unicode="f" horiz-adv-x="595" d="M72 901v123h159v197q0 65 23 112.5t63 72.5t84 36.5t95 11.5q65 0 151 -27l-22 -110q-68 12 -101 12q-69 0 -105 -31.5t-36 -105.5v-168h209v-123h-209v-901h-154v901h-157z" />
<glyph unicode="g" horiz-adv-x="1110" d="M86 516q0 120 24 214t62.5 152t92.5 95.5t109.5 52t117.5 14.5q174 0 288 -151l54 133h90v-1077q0 -222 -111 -331.5t-299 -109.5q-55 0 -113.5 12t-96 24.5t-120.5 43.5l29 109q171 -55 301 -55q48 0 91.5 16t80.5 48.5t59.5 90t22.5 133.5v179l-14 -11 q-154 -112 -299 -112q-369 0 -369 530zM238 520q0 -401 225 -401q66 0 130 25t97 49t78 63v383q0 83 -41.5 147.5t-96 94.5t-106.5 30q-159 0 -222.5 -93.5t-63.5 -297.5z" />
<glyph unicode="h" horiz-adv-x="1138" d="M186 0v1434h152v-486q36 28 53 39.5t53.5 30.5t80 26t100.5 7q142 0 234.5 -86.5t92.5 -245.5v-719h-153v674q0 120 -52 184t-155 64q-74 0 -143 -29.5t-109 -69.5v-823h-154z" />
<glyph unicode="i" horiz-adv-x="466" d="M158 0v1024h153v-1024h-153zM158 1251v183h153v-183h-153z" />
<glyph unicode="j" horiz-adv-x="454" d="M61 -418q48 63 66 144t18 204v1094h154v-1044q0 -175 -34 -280t-113 -189zM145 1253v181h154v-181h-154z" />
<glyph unicode="k" horiz-adv-x="1042" d="M186 0v1434h154v-844l438 434h195l-434 -416l456 -608h-174l-372 512l-109 -111v-401h-154z" />
<glyph unicode="l" horiz-adv-x="526" d="M186 0v1434h154v-1434h-154z" />
<glyph unicode="m" horiz-adv-x="1740" d="M186 0v1024h99l26 -104q33 27 45.5 37t47 32t60.5 31.5t67.5 18t86.5 8.5q91 0 165 -35.5t116 -104.5q37 29 63 47t70 43t92.5 37.5t100.5 12.5q142 0 235.5 -83t93.5 -241v-723h-149v659q0 125 -56.5 189.5t-150.5 64.5q-53 0 -113 -22.5t-92.5 -42t-54.5 -37.5 q10 -45 10 -88v-723h-149v659q0 125 -56.5 189.5t-150.5 64.5q-48 0 -86 -7.5t-69.5 -24t-49.5 -29.5t-47 -37v-815h-154z" />
<glyph unicode="n" horiz-adv-x="1134" d="M186 0v1024h99l24 -100q36 28 57 42.5t62 36t88.5 31.5t104.5 10q142 0 234.5 -87t92.5 -246v-711h-153v666q0 120 -52 183.5t-155 63.5q-74 0 -140.5 -29.5t-107.5 -70.5v-813h-154z" />
<glyph unicode="o" d="M86 512q0 250 109.5 391t320.5 141q214 0 335.5 -143t121.5 -389t-116.5 -385t-330.5 -139q-213 0 -326.5 138.5t-113.5 385.5zM240 508q0 -194 69 -290.5t215 -96.5q151 0 223 93t72 294q0 195 -77.5 299t-219.5 104q-158 0 -220 -99.5t-62 -303.5z" />
<glyph unicode="p" horiz-adv-x="1118" d="M186 -487v1509h90l54 -115q86 65 160.5 101t164.5 36q369 0 369 -530q0 -120 -24 -214t-62.5 -152t-92.5 -95.5t-109.5 -52t-117.5 -14.5t-121 18t-89 35.5t-68 44.5v-571h-154zM340 223q41 -49 110 -77.5t134 -28.5q159 0 222.5 94.5t63.5 298.5q0 195 -63 298t-162 103 q-51 0 -96.5 -12.5t-87 -38t-63.5 -42.5t-58 -48v-547z" />
<glyph unicode="q" horiz-adv-x="1110" d="M86 485q0 122 21.5 220t66.5 176t123 120.5t184 42.5q146 0 299 -137l54 117h90v-1516h-154v607q-5 -4 -25.5 -25t-39 -35.5t-49 -32t-74.5 -27t-97 -9.5q-80 0 -148.5 26.5t-126.5 83t-91 156t-33 233.5zM240 522q0 -66 6 -120.5t23.5 -108.5t46 -91t77 -60t113.5 -23 q79 0 152 45t112 119v473q-40 64 -130.5 109.5t-166.5 45.5q-121 0 -177 -92t-56 -297z" />
<glyph unicode="r" horiz-adv-x="759" d="M186 0v1024h99l24 -121q98 77 164.5 109t149.5 32q15 0 30 -1t25 -3t18 -4l12 -3l5 -1l-25 -141q-36 12 -100 12q-63 0 -129.5 -35.5t-118.5 -85.5v-782h-154z" />
<glyph unicode="s" horiz-adv-x="892" d="M111 68l36 114q15 -7 41 -17t96 -27t128 -17q110 0 172.5 48t62.5 140q0 44 -22.5 78t-59 54.5t-83 39.5t-95.5 33.5t-95.5 37.5t-83 49.5t-59 71t-22.5 101.5q0 130 84.5 200t237.5 70q114 0 242 -38q29 -9 28 -11l-27 -131q1 0 -12.5 5t-37.5 12t-53.5 13.5t-66 11.5 t-69.5 5q-93 0 -132.5 -33t-39.5 -110q0 -37 28.5 -64.5t74.5 -47t101.5 -39t111 -45t101.5 -59.5t74.5 -89t28.5 -127q0 -144 -100.5 -226.5t-280.5 -82.5q-83 0 -169.5 24.5t-139.5 55.5z" />
<glyph unicode="t" horiz-adv-x="708" d="M72 901v123h141v293h154v-293h249v-123h-251v-651q0 -74 35 -105.5t104 -31.5q32 0 100 12l23 -111q-83 -26 -152 -26q-51 0 -95 11.5t-83.5 36.5t-62.5 72.5t-23 112.5v680h-139z" />
<glyph unicode="u" horiz-adv-x="1114" d="M166 322v702h153v-678q0 -120 36 -173.5t126 -53.5q77 0 162 45.5t129 95.5v764h156v-1024h-90l-52 121q-34 -27 -59 -44.5t-68 -41t-93.5 -35.5t-106.5 -12q-135 0 -214 87.5t-79 246.5z" />
<glyph unicode="v" horiz-adv-x="911" d="M23 1026h174l260 -862l262 862h170l-346 -1026h-176z" />
<glyph unicode="w" horiz-adv-x="1390" d="M23 1024h159l228 -862l211 862h151l227 -870l209 870h160l-281 -1024h-180l-211 809l-198 -809h-176z" />
<glyph unicode="x" horiz-adv-x="892" d="M49 0l313 522l-301 504h170l215 -362l216 362h169l-301 -504l314 -522h-170l-228 406l-227 -406h-170z" />
<glyph unicode="y" horiz-adv-x="911" d="M23 1024h174l260 -860l262 860h170l-352 -1024q-68 -198 -150 -306.5t-211 -176.5l-57 106q82 47 154 139t96 218z" />
<glyph unicode="z" horiz-adv-x="862" d="M100 0v123l451 768h-451v133h629v-123l-450 -768h475v-133h-654z" />
<glyph unicode="{" horiz-adv-x="729" d="M61 569v95q111 0 152 62.5t41 197.5v307q0 215 96 312t275 97h43v-131h-41q-128 0 -173.5 -66t-45.5 -233v-313q0 -141 -29 -194t-127 -80q90 -20 123 -81.5t33 -189.5v-309q0 -131 23 -201t69.5 -96.5t132.5 -26.5h35v-131h-47q-177 0 -272 93t-95 309v307 q0 272 -193 272z" />
<glyph unicode="|" horiz-adv-x="595" d="M221 -416v2054h154v-2054h-154z" />
<glyph unicode="}" horiz-adv-x="729" d="M61 -281h35q64 0 105 13.5t69 50t40 99t12 161.5v309q0 129 32.5 190t122.5 81q-98 27 -126.5 80t-28.5 194v313q0 167 -46 233t-174 66h-41v131h43q179 0 275 -97t96 -312v-307q0 -135 41 -197.5t152 -62.5v-95q-193 0 -193 -272v-307q0 -216 -94.5 -309t-271.5 -93h-48 v131z" />
<glyph unicode="~" horiz-adv-x="1079" d="M111 588q39 57 103 94t136 37q50 0 94.5 -12.5t77.5 -30.5t65 -36.5t71 -31t81 -12.5q85 0 179 94l51 -59q-36 -81 -100 -124.5t-140 -43.5q-61 0 -116 19t-89.5 41.5t-83.5 41.5t-100 19q-86 0 -178 -92z" />
<glyph unicode="&#xa1;" horiz-adv-x="544" d="M195 -219v1046h153v-1046h-153zM197 1026v191h153v-191h-153z" />
<glyph unicode="&#xa2;" horiz-adv-x="780" d="M90 627q0 347 234 415v199h133v-197q106 0 237 -38l-43 -123q-89 26 -170 26q-130 0 -183.5 -62t-53.5 -220q0 -161 50 -232t171 -71q96 0 201 30l26 -129q-124 -37 -235 -37v-188h-133v193q-118 37 -176 150.5t-58 283.5z" />
<glyph unicode="&#xa3;" horiz-adv-x="1105" d="M123 717v133h139v371q0 65 24 113t65 73.5t86.5 37t97.5 11.5q59 0 151 -29l-22 -110q-67 12 -101 12q-68 0 -107.5 -39t-39.5 -114v-326h342v-133h-342v-584h557v-133h-711v717h-139z" />
<glyph unicode="&#xa4;" horiz-adv-x="1245" d="M113 1001l108 109l111 -111q111 84 278 84q185 0 303 -98l129 129l95 -94l-136 -135q72 -116 72 -283q0 -162 -67 -280l127 -127l-109 -109l-123 121q-111 -82 -283 -82q-178 0 -288 90l-113 -113l-92 95l119 118q-68 115 -68 287q0 166 57 277zM319 596 q0 -148 82.5 -243t214.5 -95q152 0 233 89.5t81 248.5q0 157 -84 255.5t-232 98.5q-147 0 -221 -98t-74 -256z" />
<glyph unicode="&#xa5;" horiz-adv-x="1249" d="M90 1434h170l365 -684l376 684h166l-471 -818h1h1h1h1h1h1h1h1h1h1h1h1h1h1h1h1h1h1h1h1h1h1h1h1h1h1h1h1h1h1h1h1h1h1h1h1h1h1h1h1h1h1h1h1h1h1h1h1h1h1h1h1h1h1h1h1h1h1h1h1h1h1h1h1h1h1h1h1h1h1h1h1h1h1h1h2h1h1h1h1h1h1h1h2h1h1h1h1h1h2h1h1h1h1h1h2h1h1h1h2h1h1h1h1 h2h1h1h2h1h1h1h2h1h1h2h1h1h1h2h1h1h2h1h1h2h1h1h2h1h2h1h1h2h1h1h2h1h2h1h1h2h1h2h1h2h1h1h2h1h2h1h2h1h2h1h2h1h2h1h2h1h2h1h2h1h2h1h2h1h2h1h2h1h2h1h2h2h1h2h1h2h1h2h2h1h2h1h2h2h1h2h1h2h2h1h2h2h1h2h1h2h2h1h2h2h1h2h2h1h2h2h2h1h2h2h1h2h2h1h2h2h2h1h2h2h2h1h2h2h2h1 h2h2h2h1h2h2h2h2h1h2h2h2h2h1h2h2h2h2h2h1h2h2h2h2h2h2h1h2h2h2h2h2h2h2h2h1h2h2h9v-133h-381v-178h381v-133h-381v-172h-153v172h-344v133h344v178h-344v133h344z" />
<glyph unicode="&#xa6;" horiz-adv-x="643" d="M246 -397v809h133v-809h-133zM246 846v805h133v-805h-133z" />
<glyph unicode="&#xa7;" horiz-adv-x="1236" d="M156 639q0 175 243 338q-75 75 -75 174q0 156 88.5 229.5t269.5 73.5q65 0 132.5 -14t102.5 -28l35 -13l-24 -127q-121 49 -250 49q-38 0 -71.5 -9t-63 -28t-47 -55t-17.5 -84q0 -36 20.5 -68.5t54.5 -58.5t78.5 -51.5t93.5 -50.5t98.5 -51.5t94 -59t79 -69.5t55 -86 t20.5 -105q0 -96 -43 -162t-153 -143q127 -93 127 -242q0 -139 -114.5 -229.5t-316.5 -90.5q-76 0 -164 27t-147 62l39 133q65 -40 143.5 -64t147.5 -24q129 0 193.5 51t64.5 141q0 48 -23.5 88t-63.5 69t-92 54.5t-109.5 48.5t-115 47t-109.5 55t-92.5 68t-64.5 89.5 t-24 115.5zM309 639q0 -49 29.5 -88t81.5 -68t107.5 -52t123.5 -54t113 -60q11 8 33 23t31 21.5t25.5 20.5t23.5 23t17.5 24.5t14.5 30.5t7.5 36t3.5 45q0 54 -25 97t-72.5 76.5t-95.5 59t-114.5 59t-108.5 60.5q-101 -66 -148 -127t-47 -127z" />
<glyph unicode="&#xa8;" horiz-adv-x="1050" d="M252 1452v217h145v-217h-145zM618 1452v217h146v-217h-146z" />
<glyph unicode="&#xa9;" horiz-adv-x="1128" d="M135 520q0 265 104.5 414t309.5 149q208 0 325 -151.5t117 -411.5q0 -259 -113.5 -409t-320.5 -150q-204 0 -313 149.5t-109 409.5zM248 514q0 -198 85 -324.5t222 -126.5q157 0 240.5 120t83.5 331q0 208 -87 337.5t-239 129.5q-103 0 -173 -62.5t-101 -165t-31 -239.5z M330 524q0 139 64 213t188 74q31 0 58.5 -4.5t58 -13t36.5 -9.5l-33 -82q-74 19 -106 19q-90 0 -126 -41.5t-36 -149.5q0 -219 160 -219q63 0 125 21l18 -84q-89 -25 -162 -25q-122 0 -183.5 80t-61.5 221z" />
<glyph unicode="&#xaa;" horiz-adv-x="743" d="M106 928q0 198 334 198l54 -2q0 82 -13.5 119t-44 49.5t-98.5 12.5q-109 0 -180 -29l-19 90q105 37 223 37q232 0 232 -229v-435h-57l-33 78q-61 -50 -104 -67t-101 -17q-92 0 -142.5 53.5t-50.5 141.5zM111 479v113h489v-113h-489zM207 934q0 -46 26 -75.5t68 -29.5 q88 0 186 93v112h-67q-124 0 -168.5 -22t-44.5 -78z" />
<glyph unicode="&#xab;" horiz-adv-x="1046" d="M123 608l287 453l100 -39l-223 -410l223 -413l-104 -39zM522 608l271 428l100 -37l-211 -387l211 -391l-102 -39z" />
<glyph unicode="&#xac;" d="M78 551v133h878v-428h-153v295h-725z" />
<glyph unicode="&#xad;" horiz-adv-x="819" d="M0 526v133h819v-133h-819z" />
<glyph unicode="&#xae;" horiz-adv-x="1128" d="M135 895q0 265 104.5 414t309.5 149q208 0 325 -151.5t117 -411.5q0 -259 -113.5 -409t-320.5 -150q-204 0 -313 149.5t-109 409.5zM248 889q0 -198 85 -324.5t222 -126.5q158 0 246 121t88 330q0 207 -91.5 337t-244.5 130q-103 0 -173 -62.5t-101 -165t-31 -239.5z M381 625v571h176q86 0 130 -38t44 -109q0 -47 -35 -88.5t-84 -45.5q38 -10 54 -26.5t45 -71.5l86 -192h-95l-75 161q-24 52 -53 69t-87 17h-24v-247h-82zM463 969h84q49 0 75.5 21.5t26.5 58.5q0 43 -22.5 60t-67.5 17h-96v-157z" />
<glyph unicode="&#xaf;" horiz-adv-x="1017" d="M180 1257v134h649v-134h-649z" />
<glyph unicode="&#xb0;" horiz-adv-x="925" d="M119 1249q0 141 100.5 240.5t241.5 99.5q143 0 242.5 -99t99.5 -241q0 -141 -100.5 -240.5t-241.5 -99.5q-144 0 -243 98.5t-99 241.5zM240 1253q0 -95 64 -161t155 -66t155 65.5t64 161.5q0 94 -64 160t-155 66t-155 -66t-64 -160z" />
<glyph unicode="&#xb1;" horiz-adv-x="1030" d="M94 -2v133h844v-133h-844zM94 731v133h336v410h154v-410h354v-133h-354v-395h-154v395h-336z" />
<glyph unicode="&#xb2;" horiz-adv-x="892" d="M207 662v65q65 66 95 96.5t75.5 79t65 75t42.5 61.5t31 61.5t8 52.5q0 61 -35.5 88t-89.5 27q-37 0 -78 -6t-63 -12l-22 -5l10 82q100 29 196 29q97 0 149 -44t52 -118q0 -103 -64 -200.5t-219 -235.5h336l-18 -96h-471z" />
<glyph unicode="&#xb3;" horiz-adv-x="870" d="M197 639l26 88q62 -37 152 -37q75 0 123.5 27t48.5 80q0 129 -178 129h-80v108h84q74 0 114.5 34t40.5 93q0 58 -31 77t-112 19q-36 0 -73.5 -11.5t-56.5 -23.5l-19 -12l-21 95q9 6 26 14.5t65.5 22.5t92.5 14q114 0 171 -51.5t57 -139.5q0 -70 -40.5 -122t-103.5 -64 q73 -9 120.5 -55.5t47.5 -116.5q0 -103 -68.5 -161t-191.5 -58q-52 0 -100.5 13t-70.5 25z" />
<glyph unicode="&#xb4;" horiz-adv-x="827" d="M207 1212l231 289l154 -61l-266 -271z" />
<glyph unicode="&#xb6;" horiz-adv-x="1226" d="M143 1087q0 54 13 104.5t43.5 99t76 84t116.5 57.5t159 22h543v-123h-144v-1747h-133v1747h-186v-1747h-133v1149q-160 0 -257.5 102.5t-97.5 251.5z" />
<glyph unicode="&#xb7;" horiz-adv-x="370" d="M109 506v211h153v-211h-153z" />
<glyph unicode="&#xb8;" horiz-adv-x="772" d="M328 -299q54 109 69 158.5t15 140.5h145q0 -99 -23.5 -163.5t-105.5 -198.5z" />
<glyph unicode="&#xb9;" horiz-adv-x="774" d="M109 1227l210 129h103v-658h-103v531l-169 -103zM176 647v98h389v-98h-389z" />
<glyph unicode="&#xba;" horiz-adv-x="757" d="M104 1079q0 70 15 131t45 112.5t83.5 81.5t123.5 30q62 0 110.5 -20t78.5 -53t49 -80t26.5 -96t7.5 -106q0 -346 -276 -346q-133 0 -198 93.5t-65 252.5zM127 479v111h489v-111h-489zM227 1081q0 -111 35.5 -178t108.5 -67q149 0 149 245q0 111 -37 180.5t-110 69.5 q-71 0 -108.5 -70t-37.5 -180z" />
<glyph unicode="&#xbb;" horiz-adv-x="1046" d="M154 221l211 387l-211 391l102 39l268 -426l-270 -428zM537 199l223 409l-223 414l104 39l283 -449l-287 -452z" />
<glyph unicode="&#xbc;" horiz-adv-x="1810" d="M113 1227l211 129h102v-611h143v-98h-389v98h142v484l-168 -103zM352 0l836 1409h149l-835 -1409h-150zM1001 174v84l345 616h118l-334 -598h287v236h105v-238h139v-100h-139v-174h-105v174h-416z" />
<glyph unicode="&#xbd;" horiz-adv-x="1671" d="M86 1227l211 129h102v-611h144v-98h-389v98h143v484l-170 -103zM352 0l836 1409h149l-835 -1409h-150zM1071 0v68q182 182 232 244q86 104 86 177q0 61 -35.5 88t-89.5 27q-37 0 -78 -5.5t-64 -10.5l-22 -6l10 82q101 28 197 28q97 0 148.5 -44t51.5 -118 q0 -103 -63.5 -200.5t-218.5 -235.5h336l-19 -94h-471z" />
<glyph unicode="&#xbe;" horiz-adv-x="1814" d="M170 637l27 88q61 -37 151 -37q75 0 123.5 27t48.5 80q0 129 -178 129h-80v108h84q74 0 115 34t41 93q0 58 -31.5 77t-112.5 19q-36 0 -73.5 -11.5t-56.5 -23.5l-19 -12l-21 95q10 6 26.5 14.5t65.5 22.5t93 14q114 0 170.5 -51t56.5 -140q0 -70 -40 -122t-103 -64 q73 -9 120.5 -55.5t47.5 -116.5q0 -103 -68.5 -161t-191.5 -58q-52 0 -100.5 13t-71.5 25zM352 0l836 1409h149l-835 -1409h-150zM1001 174v84l345 616h118l-334 -598h287v236h107v-238h137v-100h-139v-174h-105v174h-416z" />
<glyph unicode="&#xbf;" horiz-adv-x="948" d="M133 88q0 63 18 117.5t47.5 93.5t64.5 74.5t70 70t64.5 71t47.5 86t18 106.5v129h151v-119q0 -67 -18 -124.5t-47 -99t-63.5 -78.5t-69.5 -71t-64 -68t-47 -78t-18 -94q0 -89 55 -139.5t172 -50.5q135 0 248 39l22 -119q-163 -55 -297 -55q-165 0 -259.5 83t-94.5 226z M465 1044v201h153v-201h-153z" />
<glyph unicode="&#xc0;" horiz-adv-x="1185" d="M27 0l471 1434h186l475 -1434h-172l-143 453h-514l-142 -453h-161zM315 1796h172l154 -254h-125zM369 586h440l-219 692z" />
<glyph unicode="&#xc1;" horiz-adv-x="1185" d="M27 0l471 1434h186l475 -1434h-172l-143 453h-514l-142 -453h-161zM369 586h440l-219 692zM520 1540l154 254h172l-201 -254h-125z" />
<glyph unicode="&#xc2;" horiz-adv-x="1185" d="M27 0l471 1434h186l475 -1434h-172l-143 453h-514l-142 -453h-161zM266 1598l283 204h96l278 -204l-38 -60l-289 154l-291 -154zM369 586h440l-219 692z" />
<glyph unicode="&#xc3;" horiz-adv-x="1185" d="M27 0l471 1434h186l475 -1434h-172l-143 453h-514l-142 -453h-161zM229 1638q4 6 11.5 15.5t30 34.5t44.5 44t50 34.5t51 15.5q44 0 162 -56.5t145 -56.5q26 0 56 19.5t47 39.5l16 19l69 -53q-4 -6 -12 -15.5t-30.5 -34.5t-44 -44t-50 -34.5t-51.5 -15.5q-44 0 -162 56.5 t-145 56.5q-26 0 -56 -19.5t-46 -39.5l-17 -19zM369 586h440l-219 692z" />
<glyph unicode="&#xc4;" horiz-adv-x="1185" d="M27 0l471 1434h186l475 -1434h-172l-143 453h-514l-142 -453h-161zM338 1546v217h145v-217h-145zM369 586h440l-219 692zM704 1546v217h146v-217h-146z" />
<glyph unicode="&#xc5;" horiz-adv-x="1185" d="M27 0l471 1434h186l475 -1434h-172l-143 453h-514l-142 -453h-161zM365 1767q0 99 57 161.5t170 62.5t172 -63t59 -161q0 -106 -56.5 -166.5t-172.5 -60.5t-172.5 60.5t-56.5 166.5zM369 586h440l-219 692zM479 1767q0 -64 24.5 -98.5t90.5 -34.5q68 0 93.5 34.5 t25.5 98.5q0 134 -119 134q-115 0 -115 -134z" />
<glyph unicode="&#xc6;" horiz-adv-x="1742" d="M27 0l671 1434h893v-134h-659v-454h608v-137h-608v-576h659v-133h-813v453h-368l-222 -453h-161zM471 586h307v712z" />
<glyph unicode="&#xc7;" horiz-adv-x="1196" d="M102 723q0 336 165 531.5t462 195.5q96 0 167.5 -13t156.5 -46l-37 -127q-123 53 -295 53q-216 0 -340.5 -156.5t-124.5 -415.5q0 -287 117 -455.5t329 -168.5q150 0 351 80l41 -107q-88 -56 -318 -104q0 -99 -23.5 -164t-105.5 -199l-100 64q53 106 67.5 156.5 t14.5 144.5q-255 27 -391 221t-136 510z" />
<glyph unicode="&#xc8;" horiz-adv-x="1110" d="M186 0v1434h772v-134h-618v-454h567v-137h-567v-576h618v-133h-772zM350 1796h172l154 -254h-125z" />
<glyph unicode="&#xc9;" horiz-adv-x="1110" d="M186 0v1434h772v-134h-618v-454h567v-137h-567v-576h618v-133h-772zM440 1540l154 254h172l-201 -254h-125z" />
<glyph unicode="&#xca;" horiz-adv-x="1112" d="M186 0v1434h772v-134h-618v-454h567v-137h-567v-576h618v-133h-772zM205 1597l282 205h97l278 -205l-39 -59l-288 154l-291 -154z" />
<glyph unicode="&#xcb;" horiz-adv-x="1110" d="M186 0v1434h772v-134h-618v-454h567v-137h-567v-576h618v-133h-772zM309 1546v217h146v-217h-146zM676 1546v217h145v-217h-145z" />
<glyph unicode="&#xcc;" horiz-adv-x="518" d="M45 1796h172l154 -254h-125zM229 0v1434h154v-1434h-154z" />
<glyph unicode="&#xcd;" horiz-adv-x="520" d="M129 0v1434h154v-1434h-154zM143 1542l154 254h172l-201 -254h-125z" />
<glyph unicode="&#xce;" horiz-adv-x="638" d="M-2 1604l283 204h96l278 -204l-39 -60l-288 154l-291 -154zM248 0v1434h153v-1434h-153z" />
<glyph unicode="&#xcf;" horiz-adv-x="462" d="M-27 1546v217h146v-217h-146zM152 0v1434h153v-1434h-153zM340 1546v217h145v-217h-145z" />
<glyph unicode="&#xd0;" horiz-adv-x="1423" d="M74 649v133h170v652h362q152 0 279 -50t213 -138.5t134 -211.5t48 -266q0 -229 -90 -403t-257.5 -269.5t-389.5 -95.5h-299v649h-170zM410 133h151q110 0 209 43t176 123.5t122.5 206t45.5 278.5q0 123 -42 222.5t-112.5 162.5t-159.5 97t-186 34h-204v-518h360v-133 h-360v-516z" />
<glyph unicode="&#xd1;" horiz-adv-x="1390" d="M186 0v1434h160l705 -1192v1192h153v-1436h-168l-690 1149v-1147h-160zM326 1647q4 6 11.5 15.5t30 34t44 43.5t49.5 34.5t51 15.5q44 0 162 -56.5t145 -56.5q26 0 56 19.5t47 39.5l16 19l70 -53v-14q-4 -6 -12 -15.5t-31 -34.5t-44.5 -44t-50 -34.5t-51.5 -15.5 q-44 0 -162 56.5t-145 56.5q-26 0 -56 -19.5t-46 -39.5l-17 -19z" />
<glyph unicode="&#xd2;" horiz-adv-x="1327" d="M94 727q0 -122 21 -230.5t66 -202t111 -160.5t160.5 -105.5t209.5 -38.5q142 0 253.5 58.5t179.5 160.5t103 233.5t35 284.5q0 155 -35 285.5t-103.5 230t-179 155.5t-253.5 56q-141 0 -251 -56t-178.5 -155.5t-103.5 -230t-35 -285.5zM250 727q0 115 23.5 217.5 t71 188.5t130.5 137t191 51q100 0 180.5 -50t130 -133.5t76 -186.5t26.5 -214q0 -125 -24 -233t-73 -194t-130.5 -135.5t-187.5 -49.5q-103 0 -184 48.5t-130.5 133t-74.5 191.5t-25 229zM362 1796h173l153 -254h-125z" />
<glyph unicode="&#xd3;" horiz-adv-x="1327" d="M94 727q0 -122 21 -230.5t66 -202t111 -160.5t160.5 -105.5t209.5 -38.5q142 0 253.5 58.5t179.5 160.5t103 233.5t35 284.5q0 155 -35 285.5t-103.5 230t-179 155.5t-253.5 56q-141 0 -251 -56t-178.5 -155.5t-103.5 -230t-35 -285.5zM250 727q0 115 23.5 217.5 t71 188.5t130.5 137t191 51q100 0 180.5 -50t130 -133.5t76 -186.5t26.5 -214q0 -125 -24 -233t-73 -194t-130.5 -135.5t-187.5 -49.5q-103 0 -184 48.5t-130.5 133t-74.5 191.5t-25 229zM565 1542l154 254h172l-201 -254h-125z" />
<glyph unicode="&#xd4;" horiz-adv-x="1327" d="M94 727q0 155 35 285.5t103.5 230t178.5 155.5t251 56q143 0 253.5 -56t179 -155.5t103.5 -230t35 -285.5q0 -153 -35 -284.5t-103 -233.5t-179.5 -160.5t-253.5 -58.5q-115 0 -209.5 38.5t-160.5 105.5t-111 160.5t-66 202t-21 230.5zM250 727q0 -122 25 -229 t74.5 -191.5t130.5 -133t184 -48.5q106 0 187.5 49.5t130.5 135.5t73 194t24 233q0 111 -26.5 214t-76 186.5t-130 133.5t-180.5 50q-108 0 -191 -51t-130.5 -137t-71 -188.5t-23.5 -217.5zM334 1604l283 204h96l278 -204l-38 -60l-289 154l-291 -154z" />
<glyph unicode="&#xd5;" horiz-adv-x="1327" d="M94 727q0 -122 21 -230.5t66 -202t111 -160.5t160.5 -105.5t209.5 -38.5q142 0 253.5 58.5t179.5 160.5t103 233.5t35 284.5q0 155 -35 285.5t-103.5 230t-179 155.5t-253.5 56q-141 0 -251 -56t-178.5 -155.5t-103.5 -230t-35 -285.5zM250 727q0 115 23.5 217.5 t71 188.5t130.5 137t191 51q100 0 180.5 -50t130 -133.5t76 -186.5t26.5 -214q0 -125 -24 -233t-73 -194t-130.5 -135.5t-187.5 -49.5q-103 0 -184 48.5t-130.5 133t-74.5 191.5t-25 229zM274 1632q4 6 11.5 15.5t30 34.5t44.5 44t50 34.5t51 15.5q44 0 162 -56.5t145 -56.5 q26 0 56 19.5t46 39.5l17 19l69 -53q-4 -6 -12 -15.5t-30.5 -34.5t-44 -44t-50 -34.5t-51.5 -15.5q-44 0 -162 56.5t-145 56.5q-26 0 -56 -19.5t-47 -39.5l-16 -19z" />
<glyph unicode="&#xd6;" horiz-adv-x="1327" d="M94 727q0 -122 21 -230.5t66 -202t111 -160.5t160.5 -105.5t209.5 -38.5q142 0 253.5 58.5t179.5 160.5t103 233.5t35 284.5q0 155 -35 285.5t-103.5 230t-179 155.5t-253.5 56q-141 0 -251 -56t-178.5 -155.5t-103.5 -230t-35 -285.5zM250 727q0 115 23.5 217.5 t71 188.5t130.5 137t191 51q100 0 180.5 -50t130 -133.5t76 -186.5t26.5 -214q0 -125 -24 -233t-73 -194t-130.5 -135.5t-187.5 -49.5q-103 0 -184 48.5t-130.5 133t-74.5 191.5t-25 229zM408 1544v217h145v-217h-145zM774 1544v217h146v-217h-146z" />
<glyph unicode="&#xd7;" horiz-adv-x="1245" d="M113 1001l108 109l408 -410l413 414l95 -94l-414 -414l410 -411l-109 -109l-410 412l-397 -396l-92 95l395 395z" />
<glyph unicode="&#xd8;" horiz-adv-x="1327" d="M94 727q0 155 35 285.5t103.5 230t178.5 155.5t251 56q91 0 180 -27l71 211h142l-97 -280q129 -94 202 -260.5t73 -370.5q0 -153 -35 -284.5t-103 -233.5t-179.5 -160.5t-253.5 -58.5q-118 0 -162 33l-90 -246h-140l99 295q-137 89 -206 262t-69 393zM250 727 q0 -166 45.5 -302.5t134.5 -213.5l365 1085q-61 25 -129 25q-108 0 -191 -51t-130.5 -137t-71 -188.5t-23.5 -217.5zM559 139q46 -14 105 -14q106 0 187.5 49.5t130.5 135.5t73 194t24 233q0 137 -42 268t-117 214z" />
<glyph unicode="&#xd9;" horiz-adv-x="1359" d="M186 528q0 -268 126.5 -404t367.5 -136t367.5 136t126.5 404v906h-156v-930q0 -185 -90 -284t-248 -99q-163 0 -250.5 100t-87.5 283v930h-156v-906zM426 1798h172l154 -254h-125z" />
<glyph unicode="&#xda;" horiz-adv-x="1359" d="M186 528q0 -268 126.5 -404t367.5 -136t367.5 136t126.5 404v906h-156v-930q0 -185 -90 -284t-248 -99q-163 0 -250.5 100t-87.5 283v930h-156v-906zM610 1542l154 254h172l-201 -254h-125z" />
<glyph unicode="&#xdb;" horiz-adv-x="1359" d="M186 528v906h156v-930q0 -183 87.5 -283t250.5 -100q158 0 248 99t90 284v930h156v-906q0 -268 -126.5 -404t-367.5 -136t-367.5 136t-126.5 404zM352 1604l283 204h96l278 -204l-38 -60l-289 154l-291 -154z" />
<glyph unicode="&#xdc;" horiz-adv-x="1359" d="M186 528v906h156v-930q0 -183 87.5 -283t250.5 -100q158 0 248 99t90 284v930h156v-906q0 -268 -126.5 -404t-367.5 -136t-367.5 136t-126.5 404zM426 1544v217h145v-217h-145zM792 1544v217h146v-217h-146z" />
<glyph unicode="&#xdd;" horiz-adv-x="1130" d="M27 1434h170l362 -664l379 664h166l-471 -789v-645h-154v645zM467 1540l154 254h172l-201 -254h-125z" />
<glyph unicode="&#xde;" horiz-adv-x="1118" d="M182 0v1434h142v-226h268q230 -1 333 -101.5t103 -305.5q0 -217 -127 -320.5t-356 -103.5h-209v-377h-154zM336 508h135q211 0 307 63.5t96 225.5q0 147 -83.5 213.5t-268.5 66.5h80h-266v-569z" />
<glyph unicode="&#xdf;" horiz-adv-x="1163" d="M186 0v1090q0 189 94.5 276.5t299.5 87.5q108 0 193 -30.5t137 -82.5t79 -117t27 -137q0 -134 -71.5 -212t-201.5 -93q142 -18 236 -119t94 -257q0 -202 -132.5 -310t-379.5 -108q-35 0 -65 10v108q219 0 321.5 79.5t102.5 242.5q0 106 -89.5 188.5t-252.5 85.5h-58v132 h55q109 0 198 72t89 175q0 106 -69 173t-187 67q-70 0 -119.5 -15t-78 -38.5t-44 -64.5t-20 -81.5t-4.5 -101.5v-1020h-154z" />
<glyph unicode="&#xe0;" horiz-adv-x="1056" d="M102 297q0 315 527 315h84q0 97 -9.5 152.5t-39 90t-74.5 45.5t-125 11q-173 0 -283 -43l-28 119q171 57 356 57q182 0 271 -88.5t89 -271.5v-684h-90l-53 121q-95 -78 -162.5 -105.5t-158.5 -27.5q-143 0 -223.5 85t-80.5 224zM248 1440l153 61l232 -289l-119 -43z M256 309q0 -83 45 -137.5t117 -54.5q74 0 140.5 33.5t156.5 117.5v215h-92q-142 0 -223.5 -20t-112.5 -56.5t-31 -97.5z" />
<glyph unicode="&#xe1;" horiz-adv-x="1056" d="M102 297q0 315 527 315h84q0 97 -9.5 152.5t-39 90t-74.5 45.5t-125 11q-173 0 -283 -43l-28 119q171 57 356 57q182 0 271 -88.5t89 -271.5v-684h-90l-53 121q-95 -78 -162.5 -105.5t-158.5 -27.5q-143 0 -223.5 85t-80.5 224zM256 309q0 -83 45 -137.5t117 -54.5 q74 0 140.5 33.5t156.5 117.5v215h-92q-142 0 -223.5 -20t-112.5 -56.5t-31 -97.5zM490 1212l231 289l154 -61l-266 -271z" />
<glyph unicode="&#xe2;" horiz-adv-x="1056" d="M102 297q0 315 527 315h84q0 97 -9.5 152.5t-39 90t-74.5 45.5t-125 11q-173 0 -283 -43l-28 119q171 57 356 57q182 0 271 -88.5t89 -271.5v-684h-90l-53 121q-95 -78 -162.5 -105.5t-158.5 -27.5q-143 0 -223.5 85t-80.5 224zM186 1253l283 205h96l279 -205l-39 -59 l-289 154l-291 -154zM256 309q0 -83 45 -137.5t117 -54.5q74 0 140.5 33.5t156.5 117.5v215h-92q-142 0 -223.5 -20t-112.5 -56.5t-31 -97.5z" />
<glyph unicode="&#xe3;" horiz-adv-x="1056" d="M102 297q0 315 527 315h84q0 97 -9.5 152.5t-39 90t-74.5 45.5t-125 11q-173 0 -283 -43l-28 119q171 57 356 57q182 0 271 -88.5t89 -271.5v-684h-90l-53 121q-95 -78 -162.5 -105.5t-158.5 -27.5q-143 0 -223.5 85t-80.5 224zM176 1290q4 6 11.5 15.5t30 34.5t44 44 t49.5 34.5t51 15.5q44 0 162.5 -56.5t145.5 -56.5q26 0 55.5 19.5t46.5 39.5l16 19l70 -53v-15q-4 -6 -12 -15.5t-30.5 -34t-44 -43.5t-50 -34.5t-51.5 -15.5q-44 0 -162.5 56t-145.5 56q-26 0 -55.5 -19t-46.5 -39l-16 -19zM256 309q0 -83 45 -137.5t117 -54.5 q74 0 140.5 33.5t156.5 117.5v215h-92q-142 0 -223.5 -20t-112.5 -56.5t-31 -97.5z" />
<glyph unicode="&#xe4;" horiz-adv-x="1056" d="M102 297q0 315 527 315h84q0 97 -9.5 152.5t-39 90t-74.5 45.5t-125 11q-173 0 -283 -43l-28 119q171 57 356 57q182 0 271 -88.5t89 -271.5v-684h-90l-53 121q-95 -78 -162.5 -105.5t-158.5 -27.5q-143 0 -223.5 85t-80.5 224zM256 309q0 -83 45 -137.5t117 -54.5 q74 0 140.5 33.5t156.5 117.5v215h-92q-142 0 -223.5 -20t-112.5 -56.5t-31 -97.5zM260 1216v217h145v-217h-145zM626 1216v217h146v-217h-146z" />
<glyph unicode="&#xe5;" horiz-adv-x="1056" d="M102 297q0 315 527 315h84q0 97 -9.5 152.5t-39 90t-74.5 45.5t-125 11q-173 0 -283 -43l-28 119q171 57 356 57q182 0 271 -88.5t89 -271.5v-684h-90l-53 121q-95 -78 -162.5 -105.5t-158.5 -27.5q-143 0 -223.5 85t-80.5 224zM256 309q0 -83 45 -137.5t117 -54.5 q74 0 140.5 33.5t156.5 117.5v215h-92q-142 0 -223.5 -20t-112.5 -56.5t-31 -97.5zM291 1358q0 98 57.5 160.5t170.5 62.5t172 -62.5t59 -160.5q0 -106 -56.5 -167t-172.5 -61t-173 61t-57 167zM406 1358q0 -64 24.5 -98.5t90.5 -34.5q68 0 93 34.5t25 98.5t-26.5 98.5 t-91.5 34.5q-115 0 -115 -133z" />
<glyph unicode="&#xe6;" horiz-adv-x="1615" d="M102 297q0 315 527 315h84q0 97 -9.5 152.5t-39 90t-74.5 45.5t-125 11q-173 0 -283 -43l-28 119q171 57 356 57q231 0 313 -143q118 143 305 143q181 0 283 -119t102 -321q0 -55 -4 -125h-653q0 -103 28 -176.5t77 -112t103.5 -55t119.5 -16.5q22 0 41 1t41 4.5t34 5.5 t38 9.5t35 10t43.5 14t45.5 14.5l25 -119q-77 -27 -115 -39t-93.5 -22t-111.5 -10q-264 0 -381 184q-89 -93 -187.5 -138.5t-192.5 -45.5q-143 0 -223.5 85t-80.5 224zM256 309q0 -83 45 -137.5t117 -54.5q74 0 140.5 33.5t156.5 117.5v215h-92q-142 0 -223.5 -20 t-112.5 -56.5t-31 -97.5zM866 596h500q0 150 -54 232.5t-184 82.5q-69 0 -120 -25.5t-80.5 -70.5t-44.5 -99t-17 -120z" />
<glyph unicode="&#xe7;" horiz-adv-x="886" d="M90 530q0 250 114.5 382t338.5 132q119 -8 270 -49l-61 -118q-112 32 -203 32q-156 0 -224.5 -92.5t-68.5 -290.5q0 -403 289 -403q116 0 243 37l31 -121q-35 -10 -70.5 -18t-85.5 -17.5t-71 -13.5q0 -99 -23.5 -164t-105.5 -199l-101 64q57 110 74 162t17 143l-27 4 q-168 33 -252 170.5t-84 359.5z" />
<glyph unicode="&#xe8;" horiz-adv-x="1001" d="M90 512q0 245 119.5 388.5t306.5 143.5q181 0 283 -119t102 -321q0 -55 -4 -125h-653q0 -83 19 -147.5t49.5 -103.5t74.5 -64.5t88.5 -35t95.5 -9.5q22 0 41 1t41.5 5t33.5 5.5t39 9.5t34.5 10t44 14t45.5 14l24 -119q-78 -27 -115 -39t-92.5 -22t-111.5 -10 q-102 0 -184.5 30t-146.5 91t-99 163.5t-35 239.5zM250 1440l153 61l232 -289l-119 -43zM254 596h500q0 150 -54 232.5t-184 82.5q-69 0 -120 -25.5t-80.5 -70.5t-44.5 -99t-17 -120z" />
<glyph unicode="&#xe9;" horiz-adv-x="1001" d="M90 512q0 245 119.5 388.5t306.5 143.5q181 0 283 -119t102 -321q0 -55 -4 -125h-653q0 -83 19 -147.5t49.5 -103.5t74.5 -64.5t88.5 -35t95.5 -9.5q22 0 41 1t41.5 5t33.5 5.5t39 9.5t34.5 10t44 14t45.5 14l24 -119q-78 -27 -115 -39t-92.5 -22t-111.5 -10 q-102 0 -184.5 30t-146.5 91t-99 163.5t-35 239.5zM254 596h500q0 150 -54 232.5t-184 82.5q-69 0 -120 -25.5t-80.5 -70.5t-44.5 -99t-17 -120zM373 1212l231 289l154 -61l-266 -271z" />
<glyph unicode="&#xea;" horiz-adv-x="1001" d="M90 512q0 245 119.5 388.5t306.5 143.5q181 0 283 -119t102 -321q0 -55 -4 -125h-653q0 -83 19 -147.5t49.5 -103.5t74.5 -64.5t88.5 -35t95.5 -9.5q22 0 41 1t41.5 5t33.5 5.5t39 9.5t34.5 10t44 14t45.5 14l24 -119q-78 -27 -115 -39t-92.5 -22t-111.5 -10 q-102 0 -184.5 30t-146.5 91t-99 163.5t-35 239.5zM180 1253l283 205h96l279 -205l-39 -59l-289 154l-291 -154zM254 596h500q0 150 -54 232.5t-184 82.5q-69 0 -120 -25.5t-80.5 -70.5t-44.5 -99t-17 -120z" />
<glyph unicode="&#xeb;" horiz-adv-x="1001" d="M90 512q0 245 119.5 388.5t306.5 143.5q181 0 283 -119t102 -321q0 -55 -4 -125h-653q0 -83 19 -147.5t49.5 -103.5t74.5 -64.5t88.5 -35t95.5 -9.5q22 0 41 1t41.5 5t33.5 5.5t39 9.5t34.5 10t44 14t45.5 14l24 -119q-78 -27 -115 -39t-92.5 -22t-111.5 -10 q-102 0 -184.5 30t-146.5 91t-99 163.5t-35 239.5zM252 1219v217h145v-217h-145zM254 596h500q0 150 -54 232.5t-184 82.5q-69 0 -120 -25.5t-80.5 -70.5t-44.5 -99t-17 -120zM618 1219v217h146v-217h-146z" />
<glyph unicode="&#xec;" horiz-adv-x="462" d="M-74 1427l154 62l231 -289l-118 -43zM158 0v1024h149v-1024h-149z" />
<glyph unicode="&#xed;" horiz-adv-x="462" d="M158 0v1024h149v-1024h-149zM166 1212l231 289l154 -61l-266 -271z" />
<glyph unicode="&#xee;" horiz-adv-x="466" d="M-94 1253l282 205h97l278 -205l-39 -59l-288 154l-291 -154zM158 0v1024h153v-1024h-153z" />
<glyph unicode="&#xef;" horiz-adv-x="466" d="M-20 1217v217h145v-217h-145zM158 0v1024h153v-1024h-153zM346 1217v217h146v-217h-146z" />
<glyph unicode="&#xf0;" horiz-adv-x="1173" d="M129 1204l231 129q-13 11 -44.5 37t-50.5 42t-44.5 36t-44.5 33l107 71l186 -157l229 118l78 -77l-229 -119q276 -262 393 -397t117 -400q0 -247 -117 -389.5t-330 -142.5q-212 0 -326 142t-114 390q0 249 116.5 386.5t344.5 140.5l-199 200l-223 -125zM328 516 q0 -196 67.5 -295.5t212.5 -99.5q150 0 222.5 96.5t72.5 298.5q0 199 -71 295t-226 96q-159 0 -218.5 -94t-59.5 -297z" />
<glyph unicode="&#xf1;" horiz-adv-x="1134" d="M186 0v1024h99l24 -100q36 28 57 42.5t62 36t88.5 31.5t104.5 10q142 0 234.5 -87t92.5 -246v-711h-153v666q0 120 -52 183.5t-155 63.5q-74 0 -140.5 -29.5t-107.5 -70.5v-813h-154zM225 1288q4 6 11.5 15.5t30 34.5t44 44t49.5 34.5t51 15.5q44 0 162 -56.5t145 -56.5 q26 0 56 19.5t46 39.5l17 19l70 -54v-14q-4 -6 -12 -15.5t-31 -34t-44.5 -43.5t-50 -34.5t-51.5 -15.5q-44 0 -162 56t-145 56q-26 0 -56 -19t-47 -39l-16 -19z" />
<glyph unicode="&#xf2;" d="M86 512q0 250 109.5 391t320.5 141q214 0 335.5 -143t121.5 -389t-116.5 -385t-330.5 -139q-213 0 -326.5 138.5t-113.5 385.5zM240 508q0 -194 69 -290.5t215 -96.5q151 0 223 93t72 294q0 195 -77.5 299t-219.5 104q-158 0 -220 -99.5t-62 -303.5zM283 1440l153 61 l232 -289l-119 -43z" />
<glyph unicode="&#xf3;" d="M86 512q0 250 109.5 391t320.5 141q214 0 335.5 -143t121.5 -389t-116.5 -385t-330.5 -139q-213 0 -326.5 138.5t-113.5 385.5zM240 508q0 -194 69 -290.5t215 -96.5q151 0 223 93t72 294q0 195 -77.5 299t-219.5 104q-158 0 -220 -99.5t-62 -303.5zM402 1212l231 289 l154 -61l-266 -271z" />
<glyph unicode="&#xf4;" d="M86 512q0 250 109.5 391t320.5 141q214 0 335.5 -143t121.5 -389t-116.5 -385t-330.5 -139q-213 0 -326.5 138.5t-113.5 385.5zM201 1254l283 204h96l278 -204l-38 -60l-289 154l-291 -154zM240 508q0 -194 69 -290.5t215 -96.5q151 0 223 93t72 294q0 195 -77.5 299 t-219.5 104q-158 0 -220 -99.5t-62 -303.5z" />
<glyph unicode="&#xf5;" d="M86 512q0 -247 113.5 -385.5t326.5 -138.5q214 0 330.5 139t116.5 385t-121.5 389t-335.5 143q-211 0 -320.5 -141t-109.5 -391zM190 1290q4 6 11.5 15.5t30 34.5t44.5 44t50 34.5t51 15.5q44 0 162 -56.5t145 -56.5q26 0 56 19.5t46 39.5l17 19l69 -53v-15 q-4 -6 -12 -15.5t-30.5 -34t-44 -43.5t-50 -34.5t-51.5 -15.5q-44 0 -162 56t-145 56q-26 0 -56 -19t-47 -39l-16 -19zM240 508q0 204 62 303.5t220 99.5q142 0 219.5 -104t77.5 -299q0 -201 -72 -294t-223 -93q-146 0 -215 96.5t-69 290.5z" />
<glyph unicode="&#xf6;" d="M86 512q0 250 109.5 391t320.5 141q214 0 335.5 -143t121.5 -389t-116.5 -385t-330.5 -139q-213 0 -326.5 138.5t-113.5 385.5zM240 508q0 -194 69 -290.5t215 -96.5q151 0 223 93t72 294q0 195 -77.5 299t-219.5 104q-158 0 -220 -99.5t-62 -303.5zM272 1216v217h145 v-217h-145zM638 1216v217h146v-217h-146z" />
<glyph unicode="&#xf7;" horiz-adv-x="1073" d="M94 467v133h885v-133h-885zM471 0v217h154v-217h-154zM471 807v217h154v-217h-154z" />
<glyph unicode="&#xf8;" d="M45 2l139 162q-98 157 -98 356q0 249 109.5 388t320.5 139q177 0 305 -111l148 180l116 -78l-178 -213q66 -126 66 -305q0 -247 -117 -389.5t-330 -142.5q-146 0 -252 73l-122 -149zM240 510q0 -104 41 -225l458 546q-36 38 -97 60t-124 22q-158 0 -218 -99t-60 -304z M365 168q56 -47 159 -47q150 0 222.5 96.5t72.5 298.5q0 103 -22 176z" />
<glyph unicode="&#xf9;" horiz-adv-x="1134" d="M186 322q0 -159 79 -246.5t214 -87.5q56 0 106.5 12t94 35.5t69 41t58.5 44.5l51 -121h90v1024h-155v-764q-44 -50 -129 -95.5t-162 -45.5q-90 0 -126 53.5t-36 173.5v678h-154v-702zM297 1440l154 61l231 -289l-119 -43z" />
<glyph unicode="&#xfa;" horiz-adv-x="1134" d="M186 322v702h154v-678q0 -120 36 -173.5t126 -53.5q77 0 162 45.5t129 95.5v764h155v-1024h-90l-51 121q-33 -27 -58.5 -44.5t-69 -41t-94 -35.5t-106.5 -12q-135 0 -214 87.5t-79 246.5zM436 1212l232 289l153 -61l-266 -271z" />
<glyph unicode="&#xfb;" horiz-adv-x="1134" d="M186 322v702h154v-678q0 -120 36 -173.5t126 -53.5q77 0 162 45.5t129 95.5v764h155v-1024h-90l-51 121q-33 -27 -58.5 -44.5t-69 -41t-94 -35.5t-106.5 -12q-135 0 -214 87.5t-79 246.5zM238 1253l282 205h96l279 -205l-39 -59l-289 154l-291 -154z" />
<glyph unicode="&#xfc;" horiz-adv-x="1134" d="M186 322q0 -159 79 -246.5t214 -87.5q56 0 106.5 12t94 35.5t69 41t58.5 44.5l51 -121h90v1024h-155v-764q-44 -50 -129 -95.5t-162 -45.5q-90 0 -126 53.5t-36 173.5v678h-154v-702zM311 1217v217h146v-217h-146zM678 1217v217h145v-217h-145z" />
<glyph unicode="&#xfd;" horiz-adv-x="911" d="M23 1024h174l260 -860l262 860h170l-352 -1024q-68 -198 -150 -306.5t-211 -176.5l-57 106q82 47 154 139t96 218zM293 1212l231 289l154 -61l-266 -271z" />
<glyph unicode="&#xfe;" horiz-adv-x="1118" d="M186 -412v1846h154v-512q87 62 160 93.5t155 31.5q369 0 369 -531q0 -120 -24 -214t-62.5 -152t-92.5 -95.5t-109.5 -52t-117.5 -14.5q-80 0 -154 30.5t-126 71.5v-502h-152zM340 219q40 -48 108.5 -74t135.5 -26q159 0 222.5 94.5t63.5 298.5q0 195 -63 298t-162 103 q-66 0 -130 -25t-97 -49t-78 -63v-557z" />
<glyph unicode="&#xff;" horiz-adv-x="911" d="M23 1024l346 -1044q-24 -126 -96 -218t-154 -139l57 -106q129 68 211 176.5t150 306.5l352 1024h-170l-262 -860l-260 860h-174zM205 1221v217h145v-217h-145zM571 1221v217h146v-217h-146z" />
<glyph unicode="&#x152;" horiz-adv-x="1787" d="M92 727q0 155 34.5 282.5t103 223t178 148.5t251.5 53h975v-136h-618v-452h567v-137h-567v-564h618v-145l-975 2q-143 0 -253.5 56.5t-178 156.5t-101.5 229t-34 283zM248 727q0 -122 25 -226t74.5 -185t130 -127t184.5 -46h217v1155h-215q-88 0 -158.5 -31.5t-118 -85 t-79.5 -127t-46 -155t-14 -172.5z" />
<glyph unicode="&#x153;" horiz-adv-x="1763" d="M86 520q0 250 109.5 391.5t320.5 141.5q122 0 237 -66.5t162 -159.5q57 103 153 160t210 57q181 0 283 -119t102 -321q0 -55 -4 -125h-653q0 -83 19 -147.5t49.5 -103.5t74.5 -64.5t88.5 -35t95.5 -9.5q22 0 41 1t41.5 5t33.5 5.5t39 9.5t34.5 10t44 14t45.5 14l24 -119 q-78 -27 -115 -39t-92.5 -22t-111.5 -10q-138 0 -244 55t-164 168q-55 -107 -152.5 -165t-230.5 -58q-212 0 -326 142t-114 390zM244 516q0 -196 67.5 -295.5t212.5 -99.5q150 0 222.5 96.5t72.5 298.5q0 195 -77.5 299.5t-219.5 104.5q-81 0 -136 -26.5t-86 -80.5 t-43.5 -125t-12.5 -172zM1016 596h500q0 150 -54 232.5t-184 82.5q-69 0 -120 -25.5t-80.5 -70.5t-44.5 -99t-17 -120z" />
<glyph unicode="&#x178;" horiz-adv-x="1130" d="M27 1434h170l362 -664l379 664h166l-471 -789v-645h-154v645zM309 1671v217h145v-217h-145zM675 1671v217h146v-217h-146z" />
<glyph unicode="&#x2c6;" horiz-adv-x="1005" d="M174 1475l283 204h96l278 -204l-38 -60l-289 154l-291 -154z" />
<glyph unicode="&#x2dc;" horiz-adv-x="1056" d="M205 1501q4 6 11.5 15.5t30 34.5t44 44t49.5 34.5t51 15.5q44 0 162 -56.5t145 -56.5q26 0 56 19.5t46 38.5l17 20l70 -54v-14q-4 -6 -12 -15.5t-31 -34t-44.5 -43.5t-50 -34.5t-51.5 -15.5q-44 0 -162 56t-145 56q-26 0 -56 -19.5t-47 -38.5l-16 -19z" />
<glyph unicode="&#x2000;" horiz-adv-x="995" />
<glyph unicode="&#x2001;" horiz-adv-x="1991" />
<glyph unicode="&#x2002;" horiz-adv-x="995" />
<glyph unicode="&#x2003;" horiz-adv-x="1991" />
<glyph unicode="&#x2004;" horiz-adv-x="663" />
<glyph unicode="&#x2005;" horiz-adv-x="497" />
<glyph unicode="&#x2006;" horiz-adv-x="331" />
<glyph unicode="&#x2007;" horiz-adv-x="331" />
<glyph unicode="&#x2008;" horiz-adv-x="248" />
<glyph unicode="&#x2009;" horiz-adv-x="398" />
<glyph unicode="&#x200a;" horiz-adv-x="110" />
<glyph unicode="&#x2010;" horiz-adv-x="587" d="M98 520v154h391v-154h-391z" />
<glyph unicode="&#x2011;" horiz-adv-x="587" d="M98 520v154h391v-154h-391z" />
<glyph unicode="&#x2012;" horiz-adv-x="587" d="M98 520v154h391v-154h-391z" />
<glyph unicode="&#x2013;" horiz-adv-x="1024" d="M0 526v133h1024v-133h-1024z" />
<glyph unicode="&#x2014;" horiz-adv-x="1638" d="M0 526v133h1638v-133h-1638z" />
<glyph unicode="&#x2018;" horiz-adv-x="548" d="M117 1044l233 531l113 -35l-178 -547z" />
<glyph unicode="&#x2019;" horiz-adv-x="546" d="M84 1028l180 547l166 -49l-231 -533z" />
<glyph unicode="&#x201a;" horiz-adv-x="548" d="M84 -297l180 547l166 -49l-231 -533z" />
<glyph unicode="&#x201c;" horiz-adv-x="954" d="M117 1049l233 522l109 -33l-183 -539zM530 1044l228 527l108 -33l-178 -543z" />
<glyph unicode="&#x201d;" horiz-adv-x="952" d="M84 1028l178 543l158 -49l-227 -527zM492 1028l182 539l160 -49l-234 -523z" />
<glyph unicode="&#x201e;" horiz-adv-x="952" d="M84 -293l178 543l158 -49l-227 -527zM492 -293l182 539l160 -49l-234 -523z" />
<glyph unicode="&#x2022;" horiz-adv-x="962" d="M203 543q0 109 77.5 186.5t186.5 77.5t186.5 -77.5t77.5 -186.5q0 -110 -77.5 -187t-186.5 -77t-186.5 77t-77.5 187z" />
<glyph unicode="&#x2026;" horiz-adv-x="1511" d="M113 0v217h153v-217h-153zM668 0v217h153v-217h-153zM1223 0v217h153v-217h-153z" />
<glyph unicode="&#x202f;" horiz-adv-x="398" />
<glyph unicode="&#x2039;" horiz-adv-x="675" d="M121 606l285 443l112 -48l-221 -391l221 -395l-115 -47z" />
<glyph unicode="&#x203a;" horiz-adv-x="675" d="M160 215l221 391l-221 395l114 48l283 -439l-285 -442z" />
<glyph unicode="&#x205f;" horiz-adv-x="497" />
<glyph unicode="&#x20ac;" horiz-adv-x="1290" d="M43 492v133h158q0 9 -1 57.5t-1 58.5q0 18 4 80h-160v133h180q53 235 210.5 367.5t397.5 132.5q91 0 161 -14t159 -47l-37 -127q-130 55 -297 55t-280.5 -97.5t-157.5 -269.5h483v-135h-504q-4 -74 -4 -88q0 -67 2 -106h506v-133h-491q40 -176 152.5 -273.5t277.5 -97.5 q149 0 350 80l41 -107q-176 -106 -385 -106q-243 0 -396.5 136t-197.5 368h-170z" />
<glyph unicode="&#x2122;" horiz-adv-x="1404" d="M102 1327v107h443v-107h-166v-471h-115v471h-162zM696 856v578h117l178 -267l187 267h110v-578h-110v397l-187 -239h-20l-166 239v-397h-109z" />
<glyph unicode="&#xe000;" horiz-adv-x="1024" d="M0 0v1024h1024v-1024h-1024z" />
<glyph unicode="&#xfb01;" horiz-adv-x="1062" d="M16 901v123h160v197q0 65 23 112.5t62.5 72.5t83.5 36.5t95 11.5q66 0 152 -27l-23 -110q-67 12 -100 12q-69 0 -105 -31.5t-36 -105.5v-168h549v-1024h-154v899h-395v-899h-154v901h-158zM723 1249v183h154v-183h-154z" />
<glyph unicode="&#xfb02;" horiz-adv-x="933" d="M14 901v123h160v197q0 65 23 112.5t62.5 72.5t83.5 36.5t95 11.5q44 0 158 -20l152 22v-1456h-152v1311q-97 18 -129 18q-69 0 -105 -31.5t-36 -105.5v-168h209v-123h-209v-901h-154v901h-158z" />
</font>
</defs>
</svg>
