<?xml version="1.0" standalone="no"?>
<!DOCTYPE svg PUBLIC "-//W3C//DTD SVG 1.1//EN" "http://www.w3.org/Graphics/SVG/1.1/DTD/svg11.dtd" >
<svg xmlns="http://www.w3.org/2000/svg">
<metadata></metadata>
<defs>
<font id="socialico_plusregular" horiz-adv-x="1630" >
<font-face units-per-em="2048" ascent="1536" descent="-512" />
<missing-glyph horiz-adv-x="500" />
<glyph horiz-adv-x="0" />
<glyph unicode="&#xd;" />
<glyph horiz-adv-x="0" />
<glyph horiz-adv-x="0" />
<glyph unicode=" " d="M96 729q0 150 56.5 281t155 228t229 153.5t280.5 56.5t281 -56.5t228 -153.5t153.5 -228t56.5 -281t-56.5 -281t-153.5 -229t-228 -154.5t-281 -56.5t-280.5 56.5t-229 154.5t-155 229.5t-56.5 280.5z" />
<glyph unicode="!" d="M96 719q0 150 56.5 280.5t155 229t229.5 155t280 56.5q150 0 281 -56.5t228 -155t153.5 -229.5t56.5 -280q0 -150 -56.5 -281t-153.5 -228t-228 -153.5t-281 -56.5t-280.5 56.5t-229 153.5t-155 228t-56.5 281zM303 616q0 -49 41 -86v172q-18 -16 -29.5 -37.5 t-11.5 -48.5zM387 508q8 -2 15.5 -3t17.5 -1h10v225q-4 2 -10 2q-10 0 -17.5 -1t-15.5 -3v-219zM473 504h43v284q-27 -37 -35 -75l-8 4v-213zM559 504h43v346q-23 -6 -43 -21v-325zM645 504h43v354q-6 0 -13 1t-13 1q-10 0 -17 -2v-354zM711 504h63v356q-4 -6 -9 -12t-9 -14 q-20 10 -45 18v-348zM797 504h407v2q66 4 95.5 39t29.5 84q0 51 -33.5 87t-87.5 36q-23 0 -49 -11q-10 82 -71.5 137.5t-147.5 55.5t-143 -53v-377z" />
<glyph unicode="$" horiz-adv-x="1628" d="M96 717q0 150 56.5 280.5t153.5 228t228 154t281 56.5t281 -56.5t228 -154t153.5 -228.5t56.5 -280q0 -150 -56.5 -281t-153.5 -229t-228 -154.5t-281 -56.5t-281 56.5t-228 154.5t-153.5 229t-56.5 281zM401 553h56v170q0 41 10 68q10 23 29 34q20 12 45 13q33 0 45 -19 q14 -16 14 -55v-211h57v188q0 53 23 74q27 23 59 23q23 0 33 -9q14 -8 21 -24q6 -12 6 -47v-205h55v223q0 57 -27 82q-25 27 -75 27q-66 0 -105 -56q-10 27 -33 41t-61 15q-37 0 -59 -15q-14 -8 -23.5 -17t-19.5 -19v45h-50v-326zM920 713q0 -80 43 -123t116 -43q61 0 97 26 q39 29 51 78l-58 6q-16 -37 -34 -49q-23 -16 -56 -16q-43 0 -69 29q-29 29 -31 81h250v15q0 78 -43 125q-41 43 -109 43q-70 0 -112 -45q-45 -43 -45 -127zM983 748q0 43 29 67q26 25 65 25q45 0 70 -31q20 -23 22 -61h-186z" />
<glyph unicode="&#x26;" horiz-adv-x="1628" d="M96 717q0 150 56.5 280.5t153.5 228t228 154t281 56.5t281 -56.5t228 -154t153.5 -228.5t56.5 -280q0 -150 -56.5 -281t-153.5 -229t-228 -154.5t-281 -56.5t-281 56.5t-228 154.5t-153.5 229t-56.5 281zM512 807q0 -66 23.5 -109t80.5 -65q20 20 21.5 36.5t-6.5 34 t-18.5 35t-12.5 39.5q-6 57 21.5 111.5t77 88.5t110.5 40t123 -31q43 -25 61.5 -85t12 -123.5t-36 -116t-80.5 -62.5q-23 -4 -44.5 1t-31.5 15q-25 25 -20.5 55.5t16.5 65.5t22.5 71t-4.5 71q-12 29 -33.5 34t-44 -5.5t-40 -33t-21.5 -49.5q-4 -29 4 -54.5t8 -49.5 q0 -29 -7 -61.5t-17 -66.5t-20.5 -66.5t-14.5 -61.5q-4 -23 -6 -61.5t4 -61.5h-2h51q27 45 44.5 106.5t31.5 120.5q10 6 14 -5t10 -15q25 -18 57 -23.5t64.5 -0.5t62.5 18.5t48 29.5q55 47 79.5 130t16.5 159q-4 43 -25.5 81t-53 68.5t-73.5 50t-87 25.5q-72 8 -137.5 -8 t-116 -54t-81 -93t-30.5 -125z" />
<glyph unicode="(" horiz-adv-x="1628" d="M96 721q0 150 56.5 281t153.5 229t228.5 154.5t280.5 56.5q150 0 281 -56.5t228 -154.5t153.5 -229.5t56.5 -280.5q0 -150 -56.5 -281t-153.5 -228t-228 -153.5t-281 -56.5t-281 56.5t-228 153.5t-153.5 228t-56.5 281zM465 721q0 -72 27.5 -136.5t74.5 -111.5 t111.5 -74.5t136.5 -27.5t135.5 27.5t111.5 74.5t75.5 111.5t27.5 136.5q0 74 -27.5 137.5t-75.5 110.5t-111.5 74.5t-135.5 27.5t-136.5 -27.5t-111.5 -74.5t-74.5 -110.5t-27.5 -137.5zM535 721q0 57 21.5 108.5t60 90t89 60t109.5 21.5q57 0 108.5 -21.5t89.5 -60 t60.5 -90t22.5 -108.5t-22.5 -108.5t-60.5 -89.5t-89.5 -59.5t-108.5 -21.5q-59 0 -109.5 21.5t-89 59.5t-60 89.5t-21.5 108.5zM676 686l139 -139l139 139h-69v211h-140v-211h-69z" />
<glyph unicode=")" d="M96 719q0 150 56.5 280.5t153.5 228t228.5 154t280.5 56.5q150 0 281 -56.5t229 -154t154.5 -228.5t56.5 -280q0 -150 -56.5 -281t-154.5 -228t-229 -153.5t-281 -56.5t-281 56.5t-228 153.5t-153.5 228t-56.5 281zM346 764h154v-287q0 -14 10 -24.5t25 -10.5h350 l-109 111h-166v211h154l-209 229zM748 995l108 -110h166v-211h-156l211 -230l209 230h-153v287q0 14 -10.5 24t-24.5 10h-350z" />
<glyph unicode="," d="M96 713q0 150 56.5 280.5t153.5 229t228.5 155t280.5 56.5q150 0 281 -56.5t229 -155t154.5 -229.5t56.5 -280q0 -150 -56.5 -281t-154.5 -228.5t-229 -153.5t-281 -56t-281 56t-228 153.5t-153.5 228.5t-56.5 281zM463 813q-12 -29 2 -51q10 -25 43 -31l12 -2l166 21 q2 16 19 34l-103 74l-31 12q-33 8 -63 -10q-16 -6 -27.5 -18.5t-17.5 -28.5zM506 594l2 -12q8 -14 37 -19q29 -2 61 12l8 7l35 28l20.5 20.5t22.5 20.5l-4 8l-6 23l-92 -16q-8 -2 -16.5 -6.5t-18.5 -8.5q-37 -16 -47 -47zM618 432q0 -23 11 -39q12 -29 49 -39q29 -8 63 8 q31 14 43 48v12v45q-4 35 -6 65.5t-4 59.5q-10 2 -18 6t-19 8l-96 -114q-8 -8 -11 -16.5t-7 -16.5zM635 975.5q4 -14.5 12 -31.5l6 -12l103 -111l16 6l-22 136q-2 10 -6.5 18t-8.5 18q-20 39 -51 50q-18 6 -27 -2q-22 -12 -22 -41q-4 -16 0 -30.5zM723 707q0 -35 25 -56 q18 -23 53 -22q31 0 53 22q23 20 23 56q0 30 -23 53q-20 20 -53 20t-53 -20q-25 -25 -25 -53zM827 592l17 -98l14 -39q18 -41 51 -52q18 0 27 7q10 4 15.5 14.5t9.5 26.5q2 29 -15 59l-6 12l-31 37l-47 49l-16 -8zM829 997l2 -47l11 -129q16 -8 35 -20l102 127q10 18 16 35 l4 24q0 10 -2 20.5t-6 20.5q-16 31 -53 37q-33 12 -66 -4q-35 -20 -41 -53zM901 647l121 -98q12 -16 33 -19q33 -12 63 5q31 14 39 51l4 22q0 31 -18 49q-6 12 -17.5 20.5t-23.5 12.5l-12 2l-46 -2l-131 -10l-4 -14zM905 762l2 -4l2 -8l142 16q10 2 19 4t20 6q43 20 53 51 l2 11l-4 14q-10 23 -39 27q-35 4 -62 -11l-14 -4l-117 -98z" />
<glyph unicode="-" d="M96 719q0 150 56.5 280.5t153.5 228t228 154t281 56.5t281 -56.5t229 -154t154.5 -228.5t56.5 -280q0 -150 -56.5 -281t-154.5 -229t-229 -154.5t-281 -56.5t-281 56.5t-228 154.5t-153.5 229t-56.5 281zM501 824.5q-9 -19.5 15 -48.5h2l119 -145l-62 -176 q-10 -35 4.5 -48.5t47.5 3.5l188 94l189 -94q35 -16 49 -3t2 48l-60 176l119 145h2q23 29 13.5 48.5t-46.5 19.5h-155l-76 157q-16 35 -36.5 35t-37.5 -35l-73 -157h-158q-37 0 -46 -19.5z" />
<glyph unicode="." d="M96 717q0 150 56.5 280.5t153.5 229t228.5 155t280.5 56.5q150 0 281 -56.5t229 -155t154.5 -229.5t56.5 -280q0 -150 -56.5 -281t-154.5 -228t-229 -153.5t-281 -56.5t-281 56.5t-228 153.5t-153.5 228t-56.5 281zM485 717q0 -68 27 -127.5t71 -104.5t104.5 -70.5 t127.5 -25.5q68 0 128.5 25.5t105.5 70.5t70.5 104.5t25.5 127.5t-25.5 128t-70.5 105t-105.5 71t-128.5 26t-128 -26t-104 -71t-71 -105.5t-27 -127.5zM553 717q0 55 20.5 103t56.5 84t83 56.5t102 20.5t103.5 -20.5t84 -56.5t56 -84t20.5 -103t-20.5 -102.5t-56 -83 t-84 -56t-103.5 -20.5t-102 20.5t-83 56t-56.5 83t-20.5 102.5zM674 598q2 -23 17.5 -36t35.5 -9q23 4 36 19.5t11 37.5v2v172l133 25v-139q-8 4 -24 4q-23 -4 -36 -19.5t-11 -38.5t17 -35t36 -10q23 4 36 20.5t11 37.5v2v252l-191 -33v-199q-8 4 -24 4q-23 -4 -36 -20.5 t-11 -36.5z" />
<glyph unicode="/" d="M96 717q0 150 56.5 280.5t153.5 228t228 154t281 56.5t281 -56.5t229 -154t154.5 -228.5t56.5 -280q0 -150 -56.5 -281t-154.5 -229t-229 -154.5t-281 -56.5t-281 56.5t-228 154.5t-153.5 229t-56.5 281zM434 721q0 -63 44 -108.5t108 -45.5q25 0 51 11l147 -136l414 334 v205q0 2 -1 4t-1 4l-405 -430l-64 107q10 27 10 55q0 63 -44 107t-107 44t-107.5 -44t-44.5 -107z" />
<glyph unicode="0" d="M96 725q0 150 56.5 281t153.5 228t228.5 153.5t280.5 56.5q150 0 281 -56.5t229 -153.5t154.5 -228.5t56.5 -280.5q0 -150 -56.5 -281t-154.5 -229t-229 -154.5t-281 -56.5t-281 56.5t-228 154.5t-153.5 229t-56.5 281zM455 502q63 25 116 24q43 0 75 -13t59 -30 q6 20 15 52t19.5 66t18.5 63.5t12 44.5l-12 8t-13 8q-53 25 -98 25h-12q-29 -2 -54.5 -8.5t-43.5 -12.5q-6 -4 -19 -8zM541 799q66 27 121 26q41 0 71.5 -13t54.5 -30l66 224q-10 6 -32.5 18t-43.5 16q-25 6 -55 7q-51 0 -121 -29zM764 449q14 -10 54 -28t77 -18 q29 0 61.5 7.5t71.5 23.5l62 211q-61 -18 -119 -18q-51 0 -86 13t-58 30zM848 741q63 -43 139 -43q59 0 123 29v2h4l62 217q-62 -24 -121 -24q-47 0 -83 13t-59 30z" />
<glyph unicode="1" d="M96 725q0 150 56.5 281t155 228t229.5 153.5t280 56.5q150 0 281 -56.5t228 -153.5t153.5 -228.5t56.5 -280.5q0 -150 -56.5 -281t-153.5 -229t-228 -154.5t-281 -56.5t-280.5 56.5t-229 154.5t-155 229t-56.5 281zM477 623h238v-236h203v236h237v202h-237v238h-203v-238 h-238v-202z" />
<glyph unicode="2" d="M96 717q0 147 56.5 278t152.5 228.5t226.5 154t277.5 58.5h14q147 -2 277.5 -58.5t227.5 -154t152.5 -228.5t55.5 -278q0 -150 -56.5 -281t-153.5 -228t-228 -153.5t-281 -56.5t-280.5 56.5t-229 153.5t-155 228t-56.5 281zM453 733q0 -51 35.5 -87t86.5 -36q45 0 80 29 l248 -125v-6q0 -51 36 -87t87 -36t87 36t36 87t-36 87t-87 36q-23 0 -43 -8.5t-37 -20.5l-248 123v8v6l248 125q35 -29 80 -28q51 0 87 34.5t36 87.5q0 51 -36 86t-87 35t-87 -34.5t-36 -86.5v-8l-248 -125q-37 31 -80 31q-51 0 -86.5 -36t-35.5 -87z" />
<glyph unicode="3" horiz-adv-x="1628" d="M96 719q0 150 56.5 280.5t153.5 229t228.5 155t280.5 56.5q150 0 281 -56.5t228 -155t153.5 -229.5t56.5 -280q0 -150 -56.5 -281t-153.5 -228t-228 -153.5t-281 -56.5t-281 56.5t-228 153.5t-153.5 228t-56.5 281zM420 795.5q16 -60.5 52 -120t86 -114.5t101.5 -97 t96.5 -67.5t71 -25.5q27 0 70 25.5t91 67.5t95 97t81 114.5t48.5 120t-2.5 113.5q-27 86 -84 123t-120 37q-51 0 -86 -20.5t-56.5 -46t-33 -46t-15.5 -20.5t-14 20.5t-31.5 46t-56.5 46t-86 20.5q-63 0 -121.5 -37t-85.5 -123q-16 -53 0 -113.5z" />
<glyph unicode="4" horiz-adv-x="1628" d="M96 715q0 147 55.5 278t152.5 228.5t226 154t277 58.5h16q147 -2 276.5 -58.5t226.5 -154t152.5 -228.5t55.5 -278q0 -150 -56.5 -281t-153.5 -228t-228 -153.5t-281 -56.5t-281 56.5t-228 153.5t-153.5 228t-56.5 281zM467 723q0 -47 12 -90q2 2 25.5 23.5t57.5 52 t73 65.5t72.5 65.5t56 51t24.5 22.5q-2 2 -22.5 19.5t-44 39t-43 40t-21.5 20.5q-90 -45 -140 -128t-50 -181zM492 594q45 -109 145 -168v299q-4 -4 -26.5 -24.5t-49 -43t-47 -42t-22.5 -21.5zM672 406q57 -27 110 -29h66q90 8 164.5 59t115.5 135h-456v-165zM694 1049 q2 -2 21.5 -19.5t48.5 -44.5t61.5 -56.5t61 -55t48 -45t23.5 -21.5v233q-67 31 -143 31q-59 0 -121 -22zM995 608h150q18 55 18 115q0 92 -45 171t-123 126v-412z" />
<glyph unicode="5" d="M96 723q0 150 56.5 281t153.5 229t228.5 154.5t280.5 56.5q150 0 281 -56.5t229 -154.5t154.5 -229.5t56.5 -280.5q0 -150 -56.5 -281t-154.5 -228t-229 -153.5t-281 -56.5t-281 56.5t-228 153.5t-153.5 228t-56.5 281zM414 410l225 67v-92h330l-97 291h158 q82 0 139.5 57.5t57.5 138.5q0 82 -57.5 139.5t-139.5 57.5q-74 0 -129 -48t-65 -120h-7q-10 72 -65 120t-129 48q-82 0 -138.5 -57.5t-56.5 -139.5q0 -41 15.5 -75.5t41 -61t60.5 -43t76 -16.5h6v-66l-225 60v-260zM580 872q0 23 16 39.5t39 16.5t39 -16.5t16 -39.5 t-16.5 -39t-38.5 -16q-23 0 -39 16.5t-16 38.5zM979 872q0 23 16.5 39.5t38.5 16.5q23 0 39.5 -16.5t16.5 -39.5t-16.5 -39t-39.5 -16t-39 16.5t-16 38.5z" />
<glyph unicode="6" d="M96 717q0 150 56.5 280.5t155 229t229.5 155t280 56.5q150 0 281 -56.5t228 -155t153.5 -229.5t56.5 -280q0 -150 -56.5 -281t-153.5 -228t-228 -153.5t-281 -56.5t-280.5 56.5t-229 153.5t-155 228t-56.5 281zM322 717q0 -61 22.5 -114.5t62 -93.5t94 -63.5t115.5 -23.5 q70 0 128.5 29.5t99.5 78.5l-37 88q-29 -53 -79 -83.5t-112 -30.5q-45 0 -83.5 16.5t-68.5 46t-46.5 68.5t-16.5 82q0 45 16.5 84t46.5 67.5t68.5 46t83.5 17.5q66 0 120.5 -35t76.5 -92l94 -215l11 -25q29 -66 73.5 -102.5t122.5 -36.5q86 0 142.5 48t56.5 124 q0 72 -37 106.5t-115 61.5q-29 8 -52.5 16.5t-40.5 17.5t-27.5 23.5t-10.5 36.5q0 33 22.5 54.5t57.5 21.5q49 0 84 -47l63 33q-49 86 -143 86q-74 0 -117 -41t-43 -109q0 -70 44 -104.5t132 -63.5q47 -16 75 -32.5t28 -57.5t-35 -70.5t-88 -25.5q-55 2 -79.5 29.5 t-45.5 72.5q-16 37 -32.5 76t-30 70.5t-22.5 53t-11 25.5q-37 86 -109 134.5t-164 48.5q-61 0 -115.5 -23.5t-94 -63.5t-62 -94.5t-22.5 -115.5z" />
<glyph unicode="7" d="M96 711q0 150 56.5 280.5t155 229t229.5 155t280 56.5q150 0 281 -56.5t228 -155t153.5 -229.5t56.5 -280q0 -150 -56.5 -281t-153.5 -228.5t-228 -153.5t-281 -56t-280.5 56t-229 153.5t-155 228.5t-56.5 281zM565 809q0 -92 58.5 -161.5t146.5 -88.5l51 -203l51 203 q86 18 144.5 88t58.5 162q0 51 -20.5 98t-54 81t-81 54.5t-98.5 20.5q-53 0 -99 -20.5t-81 -54.5t-55.5 -81t-20.5 -98zM631 809q0 39 14 74t41 60.5t60.5 40.5t74.5 15q39 0 74 -15t60.5 -40.5t41 -60.5t15.5 -74q0 -41 -15.5 -75t-41 -60.5t-60.5 -41t-74 -14.5 q-80 0 -135 55.5t-55 135.5zM715 809q0 -45 30.5 -76t75.5 -31q43 0 74 31t31 76q0 43 -31 73.5t-74 30.5q-45 0 -75.5 -30.5t-30.5 -73.5z" />
<glyph unicode="8" d="M96 721q0 150 56.5 281t155 228t229 153.5t280.5 56.5t281 -56.5t228 -153.5t153.5 -228.5t56.5 -280.5q0 -150 -56.5 -281t-153.5 -229t-228 -154.5t-281 -56.5t-280.5 56.5t-229 154.5t-155 229t-56.5 281zM530 641q25 -88 62 -140t78 -79t79.5 -35t65.5 -10 q94 4 151.5 41t88 89t40 112.5t8.5 108.5t-7 78t-4 23q2 -12 -2.5 -23t-8.5 -22q-6 -10 -14 -22q-6 51 -43 105.5t-80 97.5q-51 51 -113 98q-2 -23 -25.5 -49.5t-56 -56t-69.5 -64.5t-64 -74q-23 -31 -33 -63.5t-14 -60t-5 -46t-5 -20.5q-8 -2 -18 4q-6 4 -11 8z" />
<glyph unicode="9" d="M96 719q0 150 56.5 280.5t155 228t229.5 154t280 56.5q150 0 281 -56.5t228 -154t153.5 -228.5t56.5 -280q0 -150 -56.5 -281t-153.5 -229t-228 -154.5t-281 -56.5t-280.5 56.5t-229 154.5t-155 229t-56.5 281zM385 682q-4 -57 34 -95t109 -32q8 2 15.5 4t15.5 6 q10 4 18.5 12.5t18.5 14.5q-4 -16 -7 -36.5t-1 -38t12 -29t33 -11.5h47q6 33 10 63.5t8 59.5q4 31 10.5 60.5t10.5 62.5q4 61 -28 94t-87 37q-59 4 -101 -13.5t-71 -45.5q-20 -23 -32.5 -50.5t-14.5 -62.5zM495 668.5q-3 17.5 0 37t12 37t19 25.5q8 8 31 12q8 0 20.5 -2 t18.5 -6q12 -10 16 -27.5t1 -37t-11 -37t-20 -25.5q-10 -8 -32 -11t-38 7q-14 10 -17 27.5zM742.5 611.5q-1.5 -19.5 7.5 -29.5q10 -14 36.5 -16.5t53.5 -0.5q8 41 15 91.5t13 97.5q4 16 6.5 33.5t-6.5 27.5q-10 18 -35.5 20.5t-56.5 2.5v-2q-6 -43 -14 -92.5t-14 -96.5 q-4 -16 -5.5 -35.5zM782 895q6 -23 29 -30t45 3q16 6 29.5 22.5t5.5 41.5q-6 20 -37 26h-18q-25 -8 -42.5 -21t-11.5 -42zM895 618q-2 -20 5 -31.5t21.5 -16.5t32 -6t37.5 -1q6 33 11.5 67t11.5 66q10 -14 18 -30.5t19 -32.5q8 -14 19 -32.5t24 -27.5q14 -10 33.5 -12t37 3 t30.5 17.5t15 28.5q-23 4 -36 15.5t-23 27t-18.5 31.5t-18.5 33l26.5 26.5t40 38t40 38l26.5 26.5q-31 -2 -61.5 2t-52.5 -6q-8 -4 -16.5 -11.5t-14.5 -13.5q-16 -14 -28.5 -28.5t-26.5 -30.5q-12 -16 -29 -29q4 35 12 79t12 79q4 43 -24.5 51t-73.5 6v-4q-4 -27 -12 -77 t-15.5 -101t-14.5 -92.5t-7 -51.5z" />
<glyph unicode=":" horiz-adv-x="1634" d="M227 881q2 131 59.5 236.5t153 176t219 102t259.5 15.5q88 -10 165.5 -48t139 -95.5t100.5 -130t49 -152.5q6 -72 -1 -149.5t-30.5 -151.5t-61.5 -138.5t-89 -107.5q-37 -33 -93.5 -57.5t-117.5 -33.5t-121.5 0t-105.5 44q-6 4 -11.5 13.5t-10.5 16.5t-11 11t-14 -2 q-12 -55 -27.5 -113.5t-33 -115t-38 -107.5t-45.5 -94h-98h4q-6 20 -7 52t0 65t4 63.5t7 52.5q8 53 27.5 116t38 126.5t33 126t14.5 115.5q0 25 -5.5 48t-10.5 48t-8 50.5t1 51.5q6 49 40 92.5t76 63t83 10t65 -64.5q18 -43 14.5 -88t-17 -90t-31 -89t-26.5 -85t-5 -78 t37 -66q18 -18 60 -27.5t83 -3.5q66 14 112 64.5t73.5 121t34.5 152.5t-5 159t-46 139.5t-87 95.5q-78 47 -157 56t-150.5 -10.5t-134 -63.5t-106.5 -103.5t-66.5 -130t-14.5 -144.5q4 -43 24.5 -76.5t35 -65.5t12.5 -63.5t-39 -68.5q-109 43 -154 123t-45 207z" />
<glyph unicode="?" d="M96 719q0 150 56.5 280.5t153.5 229t228.5 155t280.5 56.5q150 0 281 -56.5t229 -155t154.5 -229.5t56.5 -280q0 -150 -56.5 -281t-154.5 -228t-229 -153.5t-281 -56.5t-281 56.5t-228 153.5t-153.5 228t-56.5 281zM471 772q0 -80 67.5 -142.5t172.5 -86.5 q-6 -23 -22.5 -63t-39.5 -54q49 4 96 16q41 10 84 34t76 65q111 23 182.5 85t71.5 146q0 49 -26.5 93t-73.5 77t-109.5 52.5t-134.5 19.5t-134.5 -19.5t-109.5 -52.5t-73.5 -77t-26.5 -93zM784 963h9q57 0 108 -15.5t89 -41t59.5 -61.5t21.5 -75q0 -55 -42 -101t-109 -69 q47 29 74.5 70t27.5 88q0 39 -18.5 73.5t-50 61.5t-74.5 45t-95 25z" />
<glyph unicode="A" horiz-adv-x="1116" d="M92 808q8 78 45 144t100.5 105t135.5 39q27 0 53.5 -7.5t51 -16.5t46 -17t37.5 -8t40 9t53 20q28 10 60 18q21 5 42 5q12 0 24 -1q14 0 39 -4t54.5 -15.5t60.5 -33t55 -58.5q-4 0 -23.5 -14.5t-42 -42t-41 -68.5t-18.5 -94q0 -66 24.5 -110t53.5 -70.5t52.5 -37.5 t25.5 -11q-4 -4 -21.5 -54.5t-58.5 -109.5q-37 -53 -77 -96t-97 -43q-29 0 -50.5 6t-42 15t-43 16.5t-55.5 7.5t-56 -7.5t-42.5 -15.5t-41 -16.5t-48.5 -8.5h-7q-24 -1 -46 11q-24 14 -46 34.5t-41.5 47t-35.5 53.5q-39 51 -69 123q-30 71 -44 150q-9 51 -9 101q0 27 3 55z M551 1112q-1 12 -1 23q0 37 14 73q19 47 48 82q33 35 80 58.5t88 27.5q1 -11 1 -21q0 -41 -13 -79q-16 -47 -47 -84q-29 -36 -75 -60q-39 -20 -81 -21q-7 0 -14 1z" />
<glyph unicode="B" horiz-adv-x="1282" d="M154 607.5q0 31.5 3 60t8 53.5t11 37q23 23 41 22q4 0 11.5 -2t29 -10t65.5 -26.5t121 -51.5l60 -22q35 -14 35 -58q-2 -18 -11.5 -31.5t-25.5 -17.5l-86 -29q-72 -25 -113 -37t-60.5 -18t-25.5 -7t-10 -1q-27 0 -39 25q-4 10 -7 24t-5 31q-2 27 -2 58.5zM259 1264 q3 12 11 22q14 14 57.5 31.5t92.5 31t95 20.5q29 4 48 4q11 0 19 -1q27 -6 34 -33q0 -6 5.5 -71.5t10.5 -148.5t10 -160.5t7 -110.5v-12q0 -44 -13 -56q-15 -14 -26 -18q-10 -2 -31.5 1t-50.5 50l-108 166q-25 39 -51.5 84t-50 83t-40 64.5t-18.5 30.5q-2 6 -2 12t1 11z M346 211q-1 3 -1 6q0 6 3 12q2 2 6 8.5t18.5 25t45.5 54t84 99.5l43 51q10 12 27.5 15t37.5 -1q37 -14 37 -51q-2 0 -3 -14.5t-1 -30.5v-45v-118v-63.5t-1 -27.5t-1 -8q-10 -25 -35 -29q-6 -1 -13 -1q-18 1 -44 7q-37 10 -75 22.5t-70.5 30t-45.5 31.5q-12 10 -12 27z M743 678q-10 19 -10 34q0 17 12 29l9 13l18 24q10 16 27 35q43 61 67.5 95t38 51.5t17.5 22.5t8 7q12 6 23.5 6t23.5 -6q16 -8 40.5 -34.5t47 -60.5t39 -66.5t18.5 -53.5v-4q2 -12 -3 -21.5t-13 -19.5q-4 -2 -10 -4t-30 -8t-71 -17.5t-129 -29.5q-27 -6 -41 -10.5t-22 -8.5 h2q-16 -4 -33.5 3.5t-28.5 23.5zM748 490q2 18 14 32q12 16 28 20q7 2 14 2q9 0 17 -3l86 -29q72 -23 112 -36t60.5 -20t25.5 -10.5t9 -5.5q17 -10 17 -32q0 -4 -1 -9q-4 -20 -22 -52t-43 -63.5t-52.5 -57t-45.5 -33.5q-10 -5 -21 -5q-13 0 -26 7q-4 4 -8.5 11t-17.5 27.5 t-36.5 59.5t-66.5 108l-35 58q-8 12 -8 26v5z" />
<glyph unicode="C" horiz-adv-x="1103" d="M102 229v723q0 35 25 61.5t63 26.5h238v-96h-231v-706h708v706h-231v96h239q35 0 60.5 -26.5t25.5 -61.5v-723q0 -39 -25.5 -63.5t-60.5 -24.5h-723q-39 0 -63.5 24.5t-24.5 63.5zM354 1158q0 18 15 32l139 139q18 19 42 19h2q24 0 40 -19l141 -139q12 -14 12 -32.5 t-12 -35.5q-8 -6 -17 -8t-18 -2q-23 0 -32 10l-68 68v-567q0 -20 -13.5 -35t-33.5 -15q-18 0 -33.5 14.5t-15.5 35.5v567l-68 -68q-12 -14 -30.5 -14t-34.5 14q-15 16 -15 36z" />
<glyph unicode="D" horiz-adv-x="1388" d="M92 651l248 197l-248 196l354 228l248 -205l-354 -219l354 -223l357 223l247 -197l-354 -233l-250 207l-248 -207zM342 365v81l104 -73l250 209l248 -209l105 73v-81l-353 -211zM694 1067l250 205l354 -228l-247 -196z" />
<glyph unicode="E" horiz-adv-x="1099" d="M80 221q0 12 7 21.5t28 9.5q8 0 29.5 1t43 12t38 37t16.5 75v682q0 27 -4.5 52.5t-15.5 46t-30.5 33.5t-52.5 17q-27 4 -29 13.5t-6 19.5q0 29 29 29q6 0 45 -1t93.5 -2t116 -2t114.5 -1q109 0 179.5 3t115.5 8t70.5 8t43.5 3q23 0 27 -12t4 -23q0 -10 -6 -27.5t-6 -43.5 q0 -25 5 -51.5t5 -49.5q0 -25 -15.5 -33t-25.5 -8t-15 6.5t-7 24.5v39.5t-27 39t-93.5 30t-199.5 12.5q-68 0 -104.5 -4t-54 -13.5t-20.5 -24.5t-3 -36v-276q0 -23 8 -30t27 -7h252q41 0 73.5 21.5t36.5 74.5q0 29 8 35t23 6q33 0 33 -46v-5q-4 -27 -7.5 -56.5t-3.5 -68.5 q0 -35 5.5 -72t5.5 -63q0 -14 -8.5 -22.5t-18.5 -10.5t-20.5 4t-14.5 20q-4 16 -9 35t-18.5 35t-39 26.5t-68.5 10.5h-227q-18 0 -27.5 -10.5t-9.5 -44.5v-293q0 -18 4 -38t16.5 -35t36 -24.5t62.5 -9.5t89 -1h17q42 0 85 4q52 5 100.5 17.5t80.5 37.5q27 25 39.5 56.5 t22.5 84.5q0 10 11 15t24.5 1t23.5 -17t10 -40q0 -12 -5 -31.5t-12 -41t-12 -42t-5 -39.5q0 -14 1 -30.5t-1 -29.5t-8.5 -22.5t-18.5 -9.5t-18.5 2t-19.5 5t-38.5 6.5t-75.5 3.5h-90t-124.5 -1t-140.5 -1t-136.5 -1t-111.5 -1h-66q-23 0 -29 7t-6 21z" />
<glyph unicode="F" horiz-adv-x="1417" d="M94 741v5q0 28 18 48q20 22 52 21h317l43 -16q6 4 12.5 8t10.5 8q8 8 29.5 40t45 70t45 72.5t27.5 51.5l-4 139q0 35 27.5 56.5t63.5 27.5q13 2 26 3q23 1 45 -7q35 -10 51 -39q16 -31 29 -66q10 -29 19.5 -63.5t11.5 -69.5l-19 -139h260q55 0 89 -31t34 -84 q0 -55 -39 -94q5 -19 5 -38q0 -49 -38 -91q5 -19 5 -38q0 -49 -39 -89q5 -18 5 -35q0 -15 -4 -29q-8 -32 -29.5 -57.5t-55 -42t-72.5 -16.5h-420q-39 0 -62.5 18.5t-35.5 18.5q0 -47 -43 -66q-10 -4 -52 -6t-93.5 -2t-97.5 1t-62 1q-25 0 -44.5 18.5t-23.5 44.5zM375 333.5 q0 -18.5 11 -33.5t36 -15t36 15t11 33.5t-11.5 34t-35.5 15.5q-25 0 -36 -15.5t-11 -34zM547 369q10 0 17 -1t18 -6q14 -6 26.5 -15t28.5 -15h428q33 0 53 20q20 14 21 39q0 16 -13.5 22.5t-25.5 6.5v41q39 0 63 28q8 16 8 27q4 23 -9 26t-29 5v43l49 14l10 8q20 23 15 43.5 t-40 20.5v41q20 0 37 9q17 10 27 22q12 15 12 29q0 10 -8 18q-10 6 -14 6q-6 4 -17 4h-342l-20 24l35 187q4 25 -0.5 41t-14.5 43q-8 23 -16.5 41t-18.5 41q-5 4 -23 6q-6 1 -11 1q-10 0 -17 -3l4 -131q0 -18 -9 -41t-21.5 -45.5t-25.5 -44t-22 -37.5q-23 -31 -44 -63.5 t-44 -61.5q-16 -16 -32.5 -28.5t-34.5 -26.5v-338z" />
<glyph unicode="G" horiz-adv-x="1560" d="M104 383q0 55 25 92t62.5 60.5t80.5 36t82 17.5t67 5h32q-2 18 -8.5 27.5t-13.5 14.5t-12 9t-5 14v64q-12 -1 -23 -1q-58 0 -102 17q-47 16 -85 61.5t-38 137.5t44 142t97 75q63 27 144 33h284q0 -16 -20.5 -22.5t-45 -9.5t-45 -7t-20.5 -12q55 -27 69.5 -70t14.5 -115 q0 -57 -22.5 -92t-50 -59.5t-50 -42.5t-22.5 -43t29.5 -49.5t66.5 -56t66.5 -73.5t29.5 -104q0 -53 -14 -91t-39 -65.5t-55.5 -46t-61.5 -30.5q-71 -25 -157 -25h-13h-13q-74 0 -132 21q-55 18 -100.5 61t-45.5 127zM219 383q2 -31 20.5 -58.5t49 -47t69.5 -28.5 q27 -6 56 -6q13 0 26 1q45 2 83 16t65.5 36.5t42 52.5t12.5 61q-2 33 -20.5 60.5t-49 47t-69.5 28.5q-32 7 -68 7h-16q-88 -6 -146 -55q-55 -46 -55 -107v-8zM287 996v-12q0 -29 8 -60q23 -72 73 -115q38 -32 77 -32q13 0 26 3q53 14 75 76q13 34 13 72q0 29 -8 61 q-23 78 -74 119q-37 29 -74 29q-15 0 -30 -4q-27 -6 -45.5 -26t-28.5 -48.5t-12 -62.5zM762 705v57h180v188h57v-188h185v-57h-185v-189h-57v189h-180zM1208 920v59q47 4 77 12t50 19q35 23 54 98h63v-655h-86v467h-158z" />
<glyph unicode="H" horiz-adv-x="1413" d="M117 389q0 55 25.5 93t63.5 61.5t82 36t83 18.5t66.5 6h31.5q0 18 -6 27.5t-13.5 15.5t-12.5 10.5t-5 14.5v61q-15 -1 -29 -1q-54 0 -98 18q-47 18 -87 64t-40 138q0 94 45 146.5t101 77.5q63 29 145 34h289q0 -16 -20.5 -23t-44 -10t-44 -6.5t-20.5 -11.5 q55 -29 68.5 -73t13.5 -115q0 -59 -23.5 -95t-51.5 -60.5t-50.5 -44t-22.5 -46.5t31 -51.5t66.5 -56t66.5 -74.5t31 -107q0 -53 -14.5 -92t-39 -66.5t-55.5 -46t-63 -30.5q-76 -27 -170 -27q-84 0 -150 23q-57 18 -103 63t-46 129zM233 389q2 -33 21.5 -60.5t50.5 -47 t71 -29.5q29 -7 60 -7q12 0 25 1q91 8 151 58q57 47 56 108v8q-6 66 -71 106q-59 37 -141 37h-16q-92 -6 -152 -56q-56 -47 -55 -110v-8zM313 940q23 -76 74 -118q38 -31 77 -31q14 0 28 4q54 15 78 77q13 32 12 68q0 34 -11 72q-12 37 -30.5 66.5t-43 49t-52 26.5t-56.5 -1 q-53 -11 -75 -75q-11 -33 -11 -69q0 -33 10 -69zM858 948v60h201v202h61v-202h201v-60h-201v-200h-61v200h-201z" />
<glyph unicode="I" horiz-adv-x="1290" d="M111 319v799q0 57 39.5 97t99.5 40h799q57 0 97 -39.5t40 -97.5v-799q0 -59 -40 -99t-97 -40h-799q-59 0 -99 40t-40 99zM229 348q0 -18 13.5 -30.5t31.5 -12.5h748q16 0 29.5 12.5t13.5 30.5v453h-96q10 -23 12 -44.5t2 -47.5q0 -68 -25.5 -127.5t-70.5 -102.5 t-106.5 -68.5t-131.5 -25.5t-130 25.5t-105 68.5t-72 102.5t-27 127.5q0 53 17 92h-103v-453zM434 719q0 -43 16.5 -80t46 -65.5t68.5 -45t84 -16.5t85 16.5t68.5 45t46 65.5t17.5 80q0 45 -17.5 83t-46 66.5t-68.5 45t-85 16.5q-90 0 -152.5 -60.5t-62.5 -150.5zM846 971 q0 -16 15.5 -31.5t31.5 -15.5h123q20 0 34.5 15t14.5 32v119q0 18 -14.5 33.5t-34.5 15.5h-123q-16 0 -31.5 -15.5t-15.5 -33.5v-119z" />
<glyph unicode="J" horiz-adv-x="1849" d="M82 874q0 70 49 121.5t121 51.5q59 0 106.5 -40t59.5 -98l641 -258q43 27 90 27q4 0 7 -2t7 -2l144 203q0 47 18 89t49 72.5t73 48t89 17.5q45 0 86 -18.5t71.5 -49t49 -71.5t18.5 -88t-18.5 -89.5t-49 -73t-71.5 -48t-86 -17.5l-219 -160q-8 -63 -55.5 -109t-112.5 -46 q-63 0 -108.5 40t-61.5 97l-641 258q-41 -27 -86 -27q-35 0 -66.5 13.5t-54 37t-36 54.5t-13.5 67zM125 874q0 -53 37 -88.5t90 -35.5h27l-52 22q-39 16 -54 54q-7 18 -7 36q0 19 8 37q16 39 52 57q18 8 37 8t38 -8l64 -24q-37 65 -113 65q-53 0 -90 -34.5t-37 -88.5z M1036 449q16 -31 46 -48.5t67 -17.5q53 0 88 35t35 88t-35 89t-88 36q-20 0 -29 -4l54 -19q39 -16 54 -54q7 -18 7 -37q0 -20 -8 -40q-14 -39 -52 -54q-18 -7 -37 -7q-20 0 -40 8q-16 4 -30.5 11t-31.5 14zM1382 877q0 -63 44 -107.5t110 -44.5q61 0 106.5 44t45.5 108 q0 63 -45.5 108t-106.5 45q-66 0 -110 -45t-44 -108zM1411 877q0 51 37 85.5t88 34.5q49 0 85 -34.5t36 -85.5q0 -49 -36 -86t-85 -37q-51 0 -88 36.5t-37 86.5z" />
<glyph unicode="K" horiz-adv-x="1359" d="M90 720q0 56 39 95l446 447q40 39 95 39l2 -1q56 0 96 -38l199 -201l-299 -303l-142 143q-35 31 -75 31q-41 0 -76 -31l-90 -90q-33 -33 -33 -76q0 -45 33 -76l307 -309q31 -31 76 -31q41 0 75 31l467 467l2 -2q39 -39 39 -95t-39 -97l-444 -445q-41 -39 -96.5 -39 t-96.5 39l-446 445q-39 41 -39 97zM319 736q0 15 11 24l92 92q6 8 27 12q16 0 26 -12l189 -190l434 436q6 4 13 7t15 3q12 0 27 -10l90 -92q14 -14 13.5 -28t-13.5 -28l-551 -549q-10 -12 -26.5 -12t-26.5 12l-309 308q-11 11 -11 27z" />
<glyph unicode="L" horiz-adv-x="1579" d="M70 784l315 351l315 -351h-229v-315h248l166 -166h-529q-23 0 -39 14.5t-16 34.5v432h-231zM678 1135h526q23 0 39.5 -14.5t16.5 -35.5v-432h231l-315 -350l-320 350h236v316h-254z" />
<glyph unicode="M" horiz-adv-x="1466" d="M102 315v803q0 20 19 37q14 14 33 14h1157q18 0 32 -14q16 -16 17 -37v-803q0 -27 -17 -36q-14 -14 -32 -15h-1157q-18 0 -33 15q-10 4 -14.5 15t-4.5 21zM201 410l331 299l-331 288v-587zM283 1053l446 -396l451 396h-897zM295 362h872l-311 283l-94 -88l-66 2l-88 86z M930 709l334 -299v587z" />
<glyph unicode="N" horiz-adv-x="1611" d="M74 618h137q8 -49 39 -75q25 -27 76 -27q16 0 27.5 2t21.5 10q10 4 20.5 11.5t16.5 17.5q16 16 24 41q2 12 4 23.5t2 25.5q0 10 -2 24.5t-4 24.5q-10 27 -24 41q-6 10 -16.5 16.5t-20.5 10.5t-21.5 7t-27.5 3q-37 0 -62 -12q-10 -8 -21.5 -17.5t-19.5 -25.5h-129l70 379 h381v-115h-281l-26 -154v-4q33 33 61 41q31 12 74 13q49 0 90 -19q16 -10 34.5 -21.5t28.5 -27.5q10 -10 18.5 -24.5t14.5 -28.5q10 23 20.5 42t26.5 36q12 16 30.5 28.5t39.5 22.5q47 20 100 20q47 0 84 -14q16 -6 32.5 -15.5t35.5 -19.5q16 -12 30.5 -24.5t30.5 -28.5 q12 -14 25.5 -29.5t25.5 -32.5q14 16 27.5 32t28.5 30q27 29 59 53q31 23 70 35q35 14 80 14q55 0 98 -20q20 -10 38.5 -22.5t33.5 -28.5q33 -33 45 -78q18 -43 18 -99q0 -53 -18 -96q-12 -49 -45 -82q-14 -18 -33 -31.5t-41 -23.5q-43 -18 -101 -18q-39 0 -75 12 q-35 12 -68 35q-35 18 -61 49q-14 14 -27.5 26.5t-28.5 28.5l-55 -55q-16 -16 -28.5 -27.5t-26.5 -21.5q-16 -10 -32.5 -19.5t-35.5 -15.5q-20 -6 -38.5 -9t-43.5 -3q-55 0 -98 18q-43 23 -76 51q-14 18 -24.5 35.5t-20.5 40.5v-2q-23 -51 -55 -82q-16 -16 -35.5 -27.5 t-42.5 -21.5q-47 -18 -100 -19q-25 0 -48.5 4.5t-46.5 8.5q-23 6 -43 18t-36 25q-35 23 -56 67q-12 20 -17 44t-7 50zM680 610q6 -20 22 -37q24 -30 73 -30h3q33 0 53 10q12 8 25.5 12t24.5 15q10 8 21.5 16t21.5 18t18 19.5t16 19.5q-14 18 -34 37q-23 23 -47 41 q-10 10 -24.5 16.5t-25.5 10.5q-14 8 -26.5 10t-24.5 2q-49 0 -74 -35q-28 -30 -28 -79q0 -26 6 -46zM1122 653q10 -10 19.5 -19t19.5 -20q10 -12 20.5 -19t20.5 -17q12 -8 23.5 -14.5t25.5 -10.5q20 -10 54 -10q27 0 46 9.5t31 25.5q27 29 27 79q0 47 -27 80 q-16 16 -35.5 24.5t-46.5 8.5q-12 0 -25 -2t-26 -10q-29 -10 -47 -27q-10 -10 -21.5 -19.5t-19.5 -21.5q-14 -8 -22.5 -17t-16.5 -20z" />
<glyph unicode="O" horiz-adv-x="1161" d="M104 373l246 248q-37 49 -57.5 109.5t-20.5 125.5q0 82 31 153.5t84 125t124 84t153 30.5t153.5 -30.5t124.5 -84t84 -125t31 -153.5t-31 -153.5t-84 -125t-125 -84t-153 -30.5q-84 0 -152 35l-264 -269q-34 -30 -72 -30h-2q-39 0 -70 30q-29 29 -29 70q0 42 29 74z M426 856q0 -49 18.5 -93t50 -76t76 -50.5t93.5 -18.5t93 18.5t76.5 50.5t51 76t18.5 93t-18.5 93t-51 76t-76.5 51.5t-93 19.5t-93.5 -19.5t-76 -51.5t-50 -76t-18.5 -93z" />
<glyph unicode="P" horiz-adv-x="1148" d="M92 854q0 109 48 196t127 146t183 86q70 18 144 18q36 0 72 -4q72 -8 137 -39.5t116.5 -80t84 -108.5t40.5 -126q3 -27 3 -56q0 -32 -4 -68q-7 -66 -25.5 -127.5t-50 -115t-74.5 -90.5q-31 -27 -78 -47t-98 -28q-24 -4 -48 -3q-27 1 -53 5q-50 8 -88 37q-10 6 -18 22 t-23 8q-23 -92 -50 -189t-68 -169h-80h4q-6 18 -7 43.5t0 53.5t3 53.5t6 43.5q6 45 21.5 97.5t30.5 105.5t27.5 104.5t12.5 96.5q1 39 -13 80q-8 25 -9 50q0 17 4 34q6 41 33 77q28 36 63 52q24 11 47 11q10 0 22 -3q34 -8 54 -53q15 -32 15 -65q-1 -22 -7 -46 q-16 -58 -36 -112t-28 -103q-1 -8 -1 -16q0 -39 34 -70q16 -17 51 -25q24 -6 48 -5l22 1q53 12 92 54.5t61.5 101.5t28.5 128q2 26 2 51q0 41 -6 81q-10 64 -38.5 116t-73.5 79q-83 51 -168 51q-14 0 -26 -1q-98 -9 -173.5 -62.5t-120.5 -138.5q-37 -70 -37 -144 q0 -16 2 -33q4 -35 20.5 -63.5t29 -55t10.5 -53.5t-33 -57q-92 37 -128 103.5t-36 170.5z" />
<glyph unicode="Q" horiz-adv-x="1107" d="M57 506q-1 4 -1 7q0 8 6 17q10 11 16 21q37 68 69.5 128t73.5 128q4 8 13.5 20.5t9.5 18.5q0 10 -12.5 28.5t-16.5 30.5q-18 29 -33.5 53.5t-31.5 53.5q-8 10 -17.5 23.5t-5.5 35.5q4 6 9 8t11 6h177q23 -4 35 -22.5t22 -36.5q29 -45 55.5 -90t48.5 -90 q-37 -63 -75.5 -133t-79.5 -140q-10 -23 -27.5 -51t-42.5 -33h-180q-14 0 -23 17zM442 610q82 152 174.5 311.5t178.5 317.5q12 23 27.5 50.5t45.5 31.5h99q27 0 58.5 -1t37.5 -11q4 -6 4 -13q0 -4 -2 -10q-4 -12 -11 -24.5t-15.5 -24.5t-14.5 -20q-86 -154 -170 -302.5 t-170 -302.5q55 -104 109.5 -202.5t111.5 -200.5q8 -14 17.5 -31.5t5.5 -30.5q-10 -16 -40 -15t-59 1q-35 0 -65 -2q-7 -1 -14 -1q-20 0 -37 5q-12 4 -22.5 19.5t-19.5 33t-17.5 35t-14.5 27.5q-47 90 -98.5 182t-98.5 178z" />
<glyph unicode="R" horiz-adv-x="1396" d="M109 340v721q0 25 18 43t41 18l502 -4v-2q-59 -16 -115.5 -57t-93.5 -82h-172q-12 0 -22.5 -11.5t-10.5 -25.5v-479q0 -16 10 -26.5t23 -10.5h692q33 0 33 37v37l147 135v-293q0 -25 -18.5 -44.5t-42.5 -19.5h-932q-23 0 -41 19.5t-18 44.5zM412 567q10 117 52 206 t111.5 149.5t161.5 92.5t203 34v227l367 -336v-12l-367 -336v219q-20 2 -39 2q-55 -1 -109 -13q-74 -16 -141 -48.5t-126.5 -80.5t-104.5 -106z" />
<glyph unicode="S" horiz-adv-x="1515" d="M133 985q-4 13 -4 25q-1 22 11 42q18 32 50 42q2 0 30 7t77 17t116.5 18.5t149.5 12.5q26 1 51 1q189 0 363 -40q197 -45 364 -139q31 -18 39 -52q3 -11 3 -23q0 -23 -11 -46q-10 -20 -30.5 -31.5t-43.5 -11.5q-20 0 -38 10q-92 51 -185.5 83t-182.5 49.5t-170 21.5 q-54 3 -102 3q-24 0 -47 -1q-74 -2 -135 -9.5t-105 -16.5t-69 -16l-26 -7q-12 -4 -23 -4q-21 0 -41 12q-31 18 -41 53zM186 686q-5 13 -5 26q1 14 7 28q12 26 39 36q2 0 25.5 9t65.5 17.5t98.5 16.5t126.5 12q18 1 37 1q48 0 105 -4q79 -5 167 -23.5t183 -54t194 -95.5 q23 -13 29 -41q2 -9 3 -18q0 -19 -10 -37q-10 -16 -25.5 -25.5t-31.5 -9.5q-23 0 -35 11q-111 68 -218 101.5t-205 45.5q-74 9 -140 9q-22 0 -43 -1q-84 -4 -146.5 -14t-98.5 -20l-36 -11q-27 -10 -51 2t-35 39zM227 422q-2 8 -2 16q1 14 7 27q10 20 32 27q6 2 44 12 t101.5 19t146.5 13q19 1 39 1q66 1 138 -9q94 -12 194.5 -43.5t198.5 -93.5q18 -14 26 -37q3 -9 2 -17q0 -13 -7 -26q-17 -30 -47 -30h-2q-18 0 -31 10q-88 55 -178 83t-176 38q-65 7 -124 8q-19 0 -37 -1q-75 -3 -131 -12.5t-89 -18.5l-33 -9q-23 -6 -43 5t-29 38z" />
<glyph unicode="T" horiz-adv-x="1935" d="M119 610q0 43 18.5 80t48.5 64v-285q-31 29 -49 64.5t-18 76.5zM256 432v363q14 2 26.5 4t28.5 2h7.5t9.5 -4v-373h-17q-16 0 -28.5 2t-26.5 6zM399 424v352q10 -4 13 -6q14 68 59 125v-471h-72zM541 424v539q16 10 34.5 20t36.5 14v-573h-71zM684 424v586q10 4 27 4 q10 0 21 -2t22 -2v-586h-70zM793 424v575q37 -10 73 -28q4 12 13.5 22.5t17.5 20.5v-590h-104zM934 424v625q94 88 237 88q70 0 133.5 -25t111.5 -68t79 -101t39 -126q20 8 39.5 12.5t42.5 4.5q43 0 80 -15.5t62.5 -43t41 -64.5t15.5 -80q0 -82 -49.5 -140.5t-157.5 -62.5 v-4h-674z" />
<glyph unicode="U" horiz-adv-x="1189" d="M102 627.5q0 31.5 27 58.5h195v488q0 33 26.5 55t61.5 22h370q35 0 61.5 -22.5t26.5 -54.5v-488h191q27 -27 27 -57q0 -32 -27 -56l-402 -358q-26 -23 -62 -23h-1q-36 0 -59 23l-408 358q-27 23 -27 54.5z" />
<glyph unicode="V" horiz-adv-x="1290" d="M129 1100q35 70 127 98q16 6 31.5 6t31.5 -6q18 -6 50 -39t62 -74t52.5 -79.5t22.5 -59.5q2 -31 -15.5 -49t-37.5 -35q-41 -28 -44 -60v-11q0 -28 13 -60q37 -86 100.5 -146.5t149.5 -97.5q31 -16 58.5 -11t49.5 36q37 57 81 58h3q43 0 94 -33q25 -18 49.5 -36t51.5 -36 q14 -12 31.5 -25.5t30 -29t15.5 -36t-8 -46.5q-10 -29 -30.5 -56.5t-48 -49t-58 -34t-61.5 -12.5q-10 2 -24.5 4t-28.5 13q-262 113 -448.5 297t-297.5 450q-19 46 -19 87q0 39 17 73zM590 1212q0 18 7 25.5t17 8.5h8q7 0 14 -1q11 -2 19 -2q100 -4 190.5 -48t159 -115.5 t107.5 -164t40 -190.5q0 -23 -1.5 -44.5t-28.5 -21.5t-26.5 24t-1.5 46q-14 104 -46 183t-86.5 133.5t-132 88t-182.5 50.5q-10 0 -20.5 1t-19.5 3t-14 8q-4 4 -4 11q0 2 1 5zM633 1083q6 26 25 26h2q20 -1 40 -3q63 -8 121 -39t100 -76q43 -45 67 -103q23 -53 22 -109v-9 l2 -37q0 -17 -21 -18q-5 -1 -8 -1q-10 0 -15 4q-7 5 -10.5 13t-2.5 18.5t-1 20.5q-12 66 -29.5 111t-48 76.5t-75.5 52t-109 37.5q-23 4 -43 7q-17 2 -17 21q0 4 1 8zM674 948q8 16 17 19t24 2h7q26 -1 52 -13q30 -14 53 -38.5t38.5 -55t15.5 -61.5q0 -16 -4.5 -28.5 t-24.5 -16.5q-3 -1 -7 -1q-7 0 -13 7q-8 10 -11 26q-8 104 -114 125q-17 3 -29 9q-8 3 -7 13q0 5 3 13z" />
<glyph unicode="W" horiz-adv-x="1257" d="M102 346v356h420v-415zM102 758v348l420 59v-407h-420zM575 279v423h576v-509zM575 758v413l576 86v-499h-576z" />
<glyph unicode="X" horiz-adv-x="1548" d="M100 553q0 86 53.5 183.5t151.5 195.5q63 63 130 108t127 69q56 23 101 23h6q48 -2 76 -30q27 -25 31 -65q1 -8 1 -17q0 -34 -13 -76q-8 -23 10 -18q8 2 21 6q102 41 184 42h3q79 0 114 -46q16 -24 16 -57.5t-16 -77.5q-6 -18 0 -25.5t20 -11.5q31 -8 60.5 -23.5t53 -37 t38 -52.5t14.5 -70q0 -63 -44 -130.5t-125 -124t-194.5 -92.5t-250.5 -36q-104 0 -206 25t-182.5 72t-130 114.5t-49.5 151.5zM238 498q6 -55 41.5 -101.5t94.5 -76.5q58 -30 134 -44q48 -8 99 -9q30 0 61 3q84 8 156.5 36t124.5 70t79 94q22 43 22 88q0 10 -1 20 q-6 55 -42 100t-94.5 75.5t-134.5 44.5q-53 9 -110 9q-26 0 -52 -2q-84 -8 -155.5 -37t-122.5 -71t-79 -94q-22 -42 -22 -84q0 -10 1 -21zM418 571q18 35 48 63t66.5 44t77.5 20q10 1 20 1l62 -9q41 -12 72 -35.5t47 -55.5q16 -33 17 -69v-3q0 -35 -17 -72q-16 -39 -47 -68 t-71 -45t-84 -20q-8 -1 -17 0q-35 0 -68 12q-41 12 -68.5 37.5t-41.5 57.5q-14 30 -14 64q0 40 18 78zM476 450q7 -28 30 -38q17 -7 34 -7q12 -1 24 3q30 8 46 36q16 27 9 52.5t-35 40.5q-25 10 -53.5 -1.5t-45.5 -33.5q-11 -17 -11 -36q0 -8 2 -16zM633 557q-5 -10 -5 -17 q0 -12 13 -20q8 -3 15 -3q18 0 28 20q6 27 -14 34q-10 2 -20.5 -1t-16.5 -13zM981 1217q-2 8 -2 15q0 14 8 25q12 17 35 21q40 10 79 10q52 0 103 -17q90 -30 156 -104q72 -74 89 -167q6 -34 7 -67q0 -59 -20 -116v-2q-6 -19 -24 -29q-10 -6 -21 -5q-9 0 -19 3 q-23 6 -33 24.5t-2 41.5q13 39 13 80q0 25 -5 50q-12 67 -61 120q-46 52 -112 72q-41 12 -82 13q-25 0 -50 -5q-20 -8 -37.5 4t-21.5 33zM1024 1044q-1 6 -1 11q0 12 6 24q9 17 32 21q16 3 32 3q27 -1 55 -9q44 -14 79 -50q31 -38 40 -82q3 -16 3 -31q0 -28 -10 -57 q-4 -16 -21 -26q-8 -5 -17 -5t-18 5q-29 10 -29 35q0 8 3 18q4 15 4 28q0 31 -23 54q-16 20 -36.5 26.5t-43.5 2.5q-18 -2 -34.5 7t-20.5 25z" />
<glyph unicode="Y" horiz-adv-x="1376" d="M68 1276q25 -6 42 -8t34.5 -1t35 3t39.5 6q31 -53 68 -114.5t78 -127t81.5 -134.5t79.5 -132q37 63 83 139t90 147.5t79 131t51 90.5q38 -7 76.5 -7t77.5 7q-20 -29 -66.5 -104.5t-103.5 -172t-116.5 -200t-106.5 -187.5l8 -491q-12 2 -25 4q-10 2 -23 3t-24 1 q-10 0 -24.5 -1t-24.5 -3q-14 -2 -26 -4l12 491q-25 45 -72 128t-103.5 178.5t-114.5 191.5t-105 166zM958 213q0 29 17.5 51.5t54.5 22.5q35 0 57.5 -18.5t22.5 -53.5q0 -41 -21.5 -57.5t-48.5 -16.5q-35 0 -58.5 18.5t-23.5 53.5zM1034 399q29 201 47.5 406t34.5 412 q0 41 24 61q21 17 51 17q7 0 13 -1q29 -4 48.5 -21.5t19.5 -49.5q0 -10 -3 -23.5t-7 -25.5q-10 -43 -32 -132.5t-47.5 -201t-50 -230t-38.5 -219.5q-14 6 -28 9t-32 -1z" />
<glyph unicode="Z" horiz-adv-x="1157" d="M91 606q-1 2 -1 4q0 5 6 8q8 4 27 5q27 -2 47 -13.5t35 -23.5q16 -16 26 -35q25 -41 53.5 -57.5t58.5 -19.5t54.5 4t40.5 14q4 35 16.5 58t28.5 38q-59 6 -116.5 22.5t-103.5 55.5t-74.5 103.5t-28.5 166.5q0 59 19.5 106.5t53.5 83.5q-4 6 -8 23.5t-6 42.5t2 55.5 t19 67.5q7 2 16 2q13 0 31 -4q23 -4 59.5 -20.5t87.5 -51.5q86 25 178 25t176 -25q51 35 88 51.5t62 20.5q17 4 31 4q9 0 16 -2q22 -56 22 -99q1 -13 -1 -24q-8 -51 -15 -66q35 -37 54.5 -84t19.5 -106q0 -102 -28.5 -166.5t-75 -103.5t-103.5 -55.5t-117 -22.5 q18 -16 32.5 -49t14.5 -82q0 -72 -1 -125t-1 -70q0 -10 13 -26q6 -9 14 -15q8 -14 -19 -21q-28 -6 -74 -10q-36 -3 -77 -3h-25q-56 1 -104.5 5.5t-81.5 11.5t-31 17l35 41v131q-47 -10 -82 -10q-22 0 -40 4q-46 10 -72 31q-31 23 -45 57q-12 31 -26.5 51.5t-25.5 32.5 q-14 14 -26 23q-25 16 -28 24zM152 598q0 -6 8 -8q8 -4 12 2q4 4 -6 8q-4 3 -7 3q-5 0 -7 -5zM184 578q-3 -3 -3 -6q0 -5 5 -11q4 -4 8.5 -5t6.5 3q10 6 -2 14q-4 6 -10 6q-3 0 -5 -1zM211 524q10 -10 16 -6q10 6 0 17q-4 7 -11 7q-3 0 -5 -1q-2 -4 -2 -8.5t2 -8.5zM244 500 q-3 -3 -3 -7q0 -6 7 -12q14 -10 20 -4q10 10 -4 19q-7 7 -13 7q-4 0 -7 -3zM289 465q0 -12 12 -14q14 -4 18 6q2 8 -12 12q-5 1 -8 1q-7 0 -10 -5zM346 451q0 -10 16 -11q17 1 17 13q0 10 -17 10q-16 0 -16 -12zM401 457q0 -9 10 -9q3 0 7 1q14 0 14 12q-3 7 -11 7 q-3 0 -7 -1q-12 -4 -13 -10z" />
<glyph unicode="a" d="M96 719q0 150 56.5 280.5t155 229t229.5 155t280 56.5q150 0 281 -56.5t228 -155t153.5 -229.5t56.5 -280q0 -150 -56.5 -281t-153.5 -228t-228 -153.5t-281 -56.5t-280.5 56.5t-229 153.5t-155 228t-56.5 281zM542 777q-1 -14 -1 -28q0 -32 6 -64q8 -46 25.5 -88 t39.5 -73q20 -32 46 -60q24 -27 55 -26h4q33 2 52 15.5t58 13.5q18 0 32.5 -4t27 -9t25 -9.5t28.5 -4.5q35 0 57.5 26t44.5 56q25 35 35 63.5t13 32.5l-14 8q-15 7 -32.5 22.5t-32 41t-14.5 64.5q0 33 11.5 56.5t25 39.5t24.5 24.5t13 8.5q-29 43 -67.5 54t-55.5 11 q-8 1 -15 1q-31 0 -59 -14q-34 -17 -55 -17q-20 0 -49 15t-61 13q-43 0 -80 -22.5t-60 -61.5t-27 -85zM813 956q6 -1 12 -1q23 -1 45 11q28 14 43 38q36 41 36 93q0 8 -1 15q-25 -2 -52.5 -15t-45.5 -36q-16 -20 -28 -48q-9 -21 -10 -43q0 -7 1 -14z" />
<glyph unicode="b" horiz-adv-x="1640" d="M94 719q0 150 56.5 279.5t154.5 227t229 154t281 58.5h10q141 0 267 -54q130 -56 227.5 -153.5t155 -230t59.5 -281.5v-10q0 -144 -54 -271q-56 -131 -154.5 -229t-229.5 -154.5t-281 -56.5t-281 56.5t-229 154.5t-154.5 229t-56.5 281zM481 592q2 -25 11 -39 q8 -18 26 -18q2 0 7 1t19.5 5t43 13t82.5 26l63 20q23 6 27 37q0 31 -25 41l-45 16q-55 25 -87 38l-48 19.5t-21.5 7.5t-7.5 1q-16 -1 -28 -17q-10 -18 -16 -65q-3 -27 -3 -52q0 -18 2 -34zM557 1094q2 -4 13.5 -22.5t28.5 -46.5t36.5 -59.5t38.5 -60.5l78 -121 q23 -35 38 -37t21 1q6 2 18.5 11t10.5 50q-2 25 -5.5 81t-7.5 116.5t-8 107.5t-4 51q-6 20 -24 23q-7 2 -18 2q-13 0 -31 -3q-33 -5 -69 -15.5t-67 -22.5t-41 -23q-10 -13 -10 -23q0 -5 2 -9zM621 346q0 -10 8 -18q8 -10 32.5 -22.5t52 -23t53.5 -16.5q20 -4 32 -4h8 q21 5 27 21q0 2 1 6t1 19.5v46v85.5v33v22.5t2 10.5q0 27 -27 37q-31 10 -47 -11l-31 -36q-39 -47 -61.5 -73t-32.5 -39t-13 -17.5t-3 -6.5q-3 -7 -3 -11q0 -2 1 -3zM907 686q18 -25 45 -18h-2q6 2 17.5 5t29.5 7q59 14 93 21.5t50.5 12.5t21.5 6t7 3q14 14 13 31v2 q-2 14 -13.5 37.5t-28 48t-33.5 44t-30 25.5q-9 5 -18 5t-17 -5l-5 -5t-12 -15t-27.5 -38t-49.5 -69q-12 -16 -20 -26q-4 -4 -6 -9.5t-7 -9.5q-4 -6 -6 -8q-9 -10 -9 -22q0 -10 7 -23zM918 526l24 -41q31 -51 48.5 -79.5t26.5 -43t13 -19.5t6 -7q9 -6 19 -6q7 0 14 4 q14 6 33.5 24.5t38 41t32 46t15.5 37.5q1 4 1 8q0 15 -13 23q-2 2 -6.5 4t-18.5 6t-44 14.5t-81 26.5l-61 21q-8 3 -15 3q-16 0 -28 -16q-11 -14 -11 -27q0 -10 7 -20z" />
<glyph unicode="c" d="M92 713q0 150 56.5 279.5t154.5 228t229 155t281 58.5h10q141 0 267 -54q130 -56 227.5 -155t155 -231t59.5 -281v-10q0 -144 -54 -271q-56 -131 -154.5 -228.5t-229.5 -153.5t-281 -56t-281 56t-229 153.5t-154.5 228.5t-56.5 281zM498 367q0 -27 17 -44.5t44 -17.5h508 q25 0 42 17.5t17 44.5v507q0 25 -17 43.5t-42 18.5h-168v-68h162v-495h-498v495h164v68h-168q-27 0 -44 -18.5t-17 -43.5v-507zM674 1017q0 -13 10 -24q10 -10 23.5 -10t23.5 10l47 47v-397q0 -14 10.5 -24.5t24.5 -10.5t23.5 10.5t9.5 24.5v397l47 -47q8 -8 22 -8 q16 0 25 8q10 10 10 23.5t-10 23.5l-98 99q-12 12 -29.5 12t-30.5 -12l-98 -99q-10 -10 -10 -23z" />
<glyph unicode="d" horiz-adv-x="1634" d="M94 713q0 150 56.5 279.5t153.5 228t228 155t281 58.5h10q141 0 267 -54q130 -56 228.5 -155t156 -231t59.5 -281q0 -150 -56.5 -281t-154.5 -228.5t-229 -153.5t-281 -56t-281 56t-228 153.5t-153.5 228.5t-56.5 281zM375 668l258 -170l180 151l182 -151l258 170 l-180 143l-260 -162l-258 162l258 160l-180 149l-258 -166l180 -143zM557 459l258 -154l256 154v59l-76 -53l-180 151l-182 -151l-76 53v-59zM813 971l260 -160l180 143l-258 166z" />
<glyph unicode="e" horiz-adv-x="1632" d="M94 719q0 150 56.5 279.5t154.5 228t229 155t281 58.5h10q141 0 267 -54q130 -56 227.5 -154.5t155 -231t59.5 -281.5v-10q0 -144 -54 -271q-56 -131 -154.5 -228t-229.5 -153.5t-281 -56.5t-281 56.5t-229 153.5t-154.5 228t-56.5 281zM512 381q0 -18 23 -19h77.5 t129 1.5t136 1.5h99.5t50 -2.5t25.5 -3.5t12.5 -3t12 -2q16 0 16.5 20.5t0.5 41.5q0 23 11 53.5t11 46.5q0 18 -6 27.5t-14.5 11.5t-16.5 -1t-8 -11q-6 -35 -14 -55.5t-27 -36.5q-20 -16 -52 -23.5t-66.5 -10.5t-68.5 -3h-59q-51 0 -64 22.5t-13 46.5v193q0 23 6 30t18 7 h150q29 0 45 -7.5t25.5 -17.5t13.5 -22.5t6 -22.5q4 -20 21.5 -17t17.5 21q0 16 -3 41t-3 49q0 25 2 44.5t4 37.5q2 33 -21 33q-10 0 -15 -4t-5 -23q-4 -35 -24.5 -49t-47.5 -14h-168q-12 0 -17 4t-5 20v183q0 14 2 23t13 15.5t35.5 9.5t69.5 3q88 0 131 -8t60.5 -19.5 t17.5 -26v-26.5q2 -20 17 -20q8 0 17 5t9 21t-3 33.5t-3 34.5q0 16 4 28.5t4 18.5t-3 14t-17 8q-12 0 -29.5 -2t-47.5 -5t-76 -5t-117 -2q-35 0 -76 1t-77 1t-61.5 1t-29.5 1q-19 0 -19 -18q2 -8 4.5 -14.5t18.5 -8.5q43 -4 55 -33.5t12 -64.5v-449q0 -33 -11 -50 t-24.5 -24.5t-27.5 -8.5t-20 -1q-23 0 -23 -20z" />
<glyph unicode="f" horiz-adv-x="1632" d="M96 713q0 150 56.5 279.5t153.5 228t228 155t281 58.5h10q141 0 267 -54q131 -57 229 -155.5t155.5 -230.5t57.5 -281v-10q0 -144 -54 -271q-57 -131 -155 -228.5t-229 -153.5t-281 -56t-281 56t-228 153.5t-153.5 228.5t-56.5 281zM375 739l26 -340q2 -18 16.5 -31.5 t33.5 -13.5q12 0 45.5 -1t70.5 -1t68 1t37 5q31 12 30 48q10 0 26.5 -13.5t45.5 -13.5h305q59 0 93 42q24 30 24 62q0 13 -4 27q29 29 29 64q0 14 -4 28q29 30 29 65q0 14 -5 29q29 29 29 68t-24.5 61.5t-65.5 22.5h-189l15 102q-2 25 -9.5 49.5t-15.5 47.5t-20 47 q-12 20 -37 27q-16 4 -32 4q-10 0 -20 -1q-26 -4 -45.5 -20.5t-19.5 -40.5l2 -100q-4 -12 -19.5 -38t-33 -53.5t-32.5 -50t-22 -28.5q-4 -4 -16 -13l-31 13h-231q-23 0 -37 -15q-12 -14 -12 -33v-6zM578 443.5q0 13.5 8 24.5t26 11q16 0 24.5 -11t8.5 -24.5t-8.5 -24.5 t-24.5 -11q-18 0 -26 11t-8 24.5zM702 469v246q14 10 25.5 18t24.5 21q16 23 31.5 46t31.5 46q14 23 35.5 58.5t21.5 62.5l-2 94q6 3 16 3h4q13 -1 17 -5q8 -16 13.5 -29.5t11.5 -30.5q6 -18 9 -30.5t1 -30.5l-24 -135l14 -19h248q8 0 12 -2q2 0 10 -4q6 -5 6 -13 q0 -9 -9 -21q-17 -23 -46 -23v-29q25 0 29 -15t-11 -32l-8 -6l-35 -10v-31q10 -2 20.5 -4t8.5 -19q0 -6 -6 -18q-18 -23 -47 -22v-29q10 0 19.5 -4t9.5 -17q0 -18 -15 -28q-16 -14 -39 -15h-311q-10 4 -19.5 11.5t-19.5 11.5t-27 4z" />
<glyph unicode="g" horiz-adv-x="1628" d="M94 719q0 150 56.5 279.5t153.5 227t228 154t281 58.5h10q141 0 267 -54q131 -57 228 -154t154.5 -229.5t59.5 -281.5v-10q0 -144 -54 -271q-57 -131 -155 -229t-229 -154.5t-281 -56.5t-281 56.5t-228 154.5t-153.5 229t-56.5 281zM360 498q0 -57 31 -86t68 -41 q43 -14 98 -15h12q56 0 103 17q43 16 78.5 51t35.5 106q0 41 -20.5 70t-45 50.5t-45 38t-20.5 32.5t15.5 29.5t34 30t34 40t15.5 62.5q0 47 -9.5 76.5t-46.5 46.5q0 6 13.5 8t31 4t30.5 7t13 15h-192q-55 -4 -96 -22q-37 -16 -67 -50t-30 -96q0 -63 26 -92.5t58 -42.5 q29 -11 64 -11q10 0 20 1v-43q0 -12 11.5 -15t15.5 -30q-4 0 -42 -1t-81 -14.5t-78 -42t-35 -83.5zM438 498v8q0 38 36 68q40 34 99 38q7 1 15 1q50 0 88 -25q45 -27 49 -72v-8q0 -38 -37 -68q-41 -33 -100 -37q-7 -1 -15 -1q-49 0 -87 25q-44 28 -48 71zM489 862 q-5 21 -5 41q0 26 8 49q16 41 51 52q9 3 18 3q26 0 51 -21q35 -28 50 -79q5 -21 5 -41q0 -26 -9 -49q-15 -41 -50 -51q-9 -3 -18 -3l-52 21q-35 29 -49 78zM803 715h123v-127h39v127h122v39h-122v127h-39v-127h-123v-39zM1106 858h104v-313h60v440h-43q-12 -51 -37 -65 q-12 -6 -32.5 -11.5t-51.5 -9.5v-41z" />
<glyph unicode="h" horiz-adv-x="1628" d="M92 719q0 150 56.5 279.5t153.5 227t228 154t281 58.5h10q141 0 267 -54q130 -56 228.5 -153.5t156 -230t59.5 -281.5q0 -150 -56.5 -281t-154.5 -229t-229 -154.5t-281 -56.5t-281 56.5t-228 154.5t-153.5 229t-56.5 281zM416 479q0 -59 31.5 -90t70.5 -43 q40 -14 92 -14h13q66 0 118 18q45 16 82 53t37 111q0 43 -21.5 72.5t-46 52.5t-46 39.5t-21.5 34.5t16.5 31.5t35 31t34.5 42t16 65.5q0 49 -9 79.5t-48 49.5q0 6 14.5 8t30.5 5t30.5 7t14.5 17h-198q-57 -4 -103 -25q-39 -16 -69.5 -52t-30.5 -102t26.5 -97.5t61.5 -43.5 q29 -11 66 -11q11 0 22 1v-43q0 -14 12 -17.5t15 -29.5q-4 0 -43 -1t-84.5 -15.5t-82 -45t-36.5 -88.5zM498 479v8q0 42 38 74q42 35 103 39h15q54 0 94 -24q46 -28 49 -76q0 -4 1 -8q0 -40 -40 -72q-42 -35 -103 -39h-15q-53 1 -93 25q-45 28 -49 73zM553 860q-8 26 -8 50 t8 46q16 43 53 54q10 3 20 2q28 0 54 -20q35 -28 51 -83q7 -25 7 -47q0 -26 -9 -49q-16 -43 -53 -53q-9 -3 -19 -3q-27 1 -54 23q-36 30 -50 80zM930 866h139v-139h41v139h139v41h-139v142h-41v-142h-139v-41z" />
<glyph unicode="i" d="M94 719q0 150 56.5 279.5t154.5 227t229 154t281 58.5h10q141 0 267 -54q130 -56 227.5 -153.5t155 -230t59.5 -281.5v-10q0 -144 -54 -271q-56 -131 -154.5 -229t-229.5 -154.5t-281 -56.5t-281 56.5t-229 154.5t-154.5 229t-56.5 281zM422 426q0 -41 29.5 -70.5 t70.5 -29.5h584q41 0 70.5 29.5t29.5 70.5v584q0 41 -29.5 70.5t-70.5 29.5h-584q-41 0 -70.5 -29.5t-29.5 -70.5v-584zM508 446v332h74q-10 -27 -11 -67q0 -49 19.5 -92.5t52.5 -75t77 -50t95 -18.5t95 18.5t77 50t52.5 75t19.5 92.5q0 41 -10 67h69v-332q0 -12 -9 -21 t-22 -9h-546q-14 0 -23.5 9t-9.5 21zM657 719q0 66 46 109.5t112 43.5t112 -44t46 -109q0 -63 -46 -107.5t-112 -44.5t-112 44t-46 108zM958 903v86q0 14 10.5 24.5t24.5 10.5h90q14 0 24.5 -10t10.5 -25v-86q0 -14 -10 -24.5t-25 -10.5h-90q-14 0 -24.5 10.5t-10.5 24.5z " />
<glyph unicode="j" horiz-adv-x="1628" d="M96 719q0 150 56.5 279.5t153.5 228t228 155t281 58.5h10q141 0 267 -54q131 -57 228 -155t154.5 -230.5t59.5 -281.5v-10q0 -144 -54 -271q-57 -131 -155 -228t-229 -153.5t-281 -56.5t-281 56.5t-228 153.5t-153.5 228t-56.5 281zM272 819q0 -47 32 -78.5t79 -31.5 q29 0 55 16l414 -166q10 -37 39 -62.5t70 -25.5q43 0 73.5 29.5t34.5 70.5l141 103q59 0 102.5 43t43.5 104q0 59 -43.5 102.5t-102.5 43.5q-61 0 -104 -42t-43 -104l-92 -131q-4 0 -5 1t-5 1q-31 0 -58 -16l-414 166q-8 37 -37.5 62.5t-68.5 25.5q-47 0 -79 -33t-32 -78z M301 819q0 35 23.5 57.5t58.5 22.5q49 0 72 -43l-41 16q-25 10 -48.5 -1t-33.5 -35q-10 -23 0 -47.5t35 -34.5l32 -15h-16q-35 0 -58.5 22.5t-23.5 57.5zM889 545q20 -10 39 -17q25 -10 49 0.5t35 34.5q10 25 -0.5 49.5t-34.5 34.5l-35 12q7 3 19 3q35 0 57 -23t22 -57 q0 -35 -22.5 -57.5t-56.5 -22.5q-51 0 -72 43zM1112 821q0 41 28.5 70t69.5 29t70 -29t29 -70t-29 -69.5t-70 -28.5t-69.5 28.5t-28.5 69.5zM1130 821q0 -33 24 -56.5t56 -23.5q33 0 55.5 23.5t22.5 56.5t-22.5 55.5t-55.5 22.5t-56.5 -22.5t-23.5 -55.5z" />
<glyph unicode="k" horiz-adv-x="1632" d="M96 719q0 150 56.5 279.5t153.5 228t228 155t281 58.5h10q141 0 267 -54q130 -56 228.5 -154.5t156 -231t59.5 -281.5q0 -150 -56.5 -281t-154.5 -228t-229 -153.5t-281 -56.5t-281 56.5t-228 153.5t-153.5 228t-56.5 281zM358 720q0 -44 31 -77l350 -348q31 -31 75 -31 t77 31l348 348q31 33 31 77t-31 75l-2 2l-367 -367q-24 -24 -56 -24h-3q-35 0 -59 24l-242 242q-25 25 -25 59q0 35 25 60l72 71q29 25 59 25q31 0 59 -25l111 -112l236 237l-156 158q-33 31 -77 31t-75 -31l-350 -350q-31 -31 -31 -75zM537 731.5q0 -12.5 10 -20.5 l241 -242q8 -10 20.5 -10t22.5 10l433 432q10 10 10 20.5t-10 22.5l-72 72q-8 8 -21 8q-10 0 -22 -8l-340 -342l-150 149q-6 10 -20 11q-16 -4 -21 -11l-71 -71q-10 -8 -10 -20.5z" />
<glyph unicode="l" d="M96 719q0 150 56.5 280.5t153.5 228t228.5 154t280.5 56.5q150 0 281 -56.5t229 -154t154.5 -228.5t56.5 -280q0 -150 -56.5 -281t-154.5 -228t-229 -153.5t-281 -56.5t-281 56.5t-228 153.5t-153.5 228t-56.5 281zM346 764h154v-287q0 -14 10 -24.5t25 -10.5h350 l-109 111h-166v211h154l-209 229zM748 995l108 -110h166v-211h-156l211 -230l209 230h-153v287q0 14 -10.5 24t-24.5 10h-350z" />
<glyph unicode="m" d="M94 717q0 150 56.5 279.5t153.5 227t228 154t281 58.5h10q141 0 267 -54q130 -56 227.5 -154t155 -230t59.5 -281v-10q0 -144 -54 -271q-56 -131 -154.5 -228t-229.5 -153.5t-281 -56.5t-281 56.5t-228 153.5t-153.5 228t-56.5 281zM360 428q0 -18 13 -27q10 -10 24 -10 h832q14 0 24 10t11 27v578q0 12 -11 26q-10 10 -24 10h-832q-14 0 -24 -10q-12 -12 -13 -26v-578zM430 496v424l240 -209zM489 958h646l-324 -284zM498 461l225 205l65 -62l46 -2l69 64l223 -205h-628zM956 711l240 209v-424z" />
<glyph unicode="n" horiz-adv-x="1634" d="M96 719q0 150 56.5 279.5t155 228t229 155t280.5 58.5h10q141 0 267 -54q130 -56 227.5 -154.5t155 -231t59.5 -281.5v-10q0 -144 -54 -271q-56 -131 -154.5 -228t-229.5 -153.5t-281 -56.5t-280.5 56.5t-229 153.5t-155 228t-56.5 281zM362 649q2 -16 5.5 -32.5 t11.5 -28.5q14 -31 37 -45q23 -20 53 -29q16 -4 31.5 -6t31.5 -2q35 0 66 12q29 12 53 33q20 20 37 53v2q8 -27 29 -49q25 -25 51 -35q27 -12 66 -12q31 0 53 8q12 4 23.5 9t21.5 14q10 6 18 14t19 18l37 37l36 -37q23 -23 41 -32q10 -8 21.5 -13.5t23.5 -9.5q23 -8 52 -8 q37 0 65 12q31 12 49 37q20 20 31 53q12 31 12 66q0 34 -12 65q-10 31 -31 52q-18 23 -47 34q-31 12 -65 13q-31 0 -54 -8q-27 -10 -47 -25q-23 -16 -39 -35q-10 -10 -18 -20.5t-18 -20.5q-16 20 -35 41q-10 10 -20.5 18.5t-20.5 16.5q-23 16 -45 25q-23 8 -56 8 q-35 0 -65 -13q-14 -8 -25.5 -16t-21.5 -18t-17.5 -23.5t-13.5 -28.5q-4 10 -9 18.5t-13 16.5q-8 10 -19.5 18.5t-23.5 14.5q-25 12 -60 12q-31 0 -49 -8q-10 -4 -20.5 -10t-20.5 -17v3l18 102h187v76h-254l-45 -252h84q10 18 28 28q14 8 41 9q16 0 33 -6q14 -6 25 -19 q10 -10 16 -27q4 -20 4 -32q0 -10 -1 -17.5t-3 -15.5q-4 -10 -8 -16.5t-8 -12.5q-10 -12 -25 -18q-14 -8 -33 -8q-33 0 -51 18q-18 14 -24 49h-93zM762 674q0 31 18 53q18 25 49 25q18 0 35 -9q18 -8 33 -18q8 -6 15.5 -12t15.5 -15l24 -24q-6 -6 -11 -13.5t-13 -13.5 q-14 -14 -29 -22q-8 -6 -15 -10.5t-18 -8.5q-16 -6 -35 -6q-33 0 -51 21q-18 20 -18 53zM1061 674q8 12 24 24q6 8 13.5 14.5t15.5 12.5q10 10 31 18q14 8 35 9q31 0 53 -23q18 -23 18 -53q0 -33 -18 -53q-16 -23 -51 -23q-20 0 -35 6q-10 4 -17.5 8t-15.5 9q-8 6 -14 11 t-15 13q-6 6 -12 12.5t-12 14.5z" />
<glyph unicode="o" horiz-adv-x="1634" d="M96 713q0 150 56.5 279.5t155 228t229 155t280.5 58.5h10q141 0 267 -54q130 -56 227.5 -155t155 -231t59.5 -281v-10q0 -144 -54 -271q-56 -131 -154.5 -228.5t-229.5 -153.5t-281 -56t-280.5 56t-229 153.5t-155 228.5t-56.5 281zM438 388.5q0 -30.5 23 -52.5 q23 -23 53 -23q31 0 53 23l199 199q51 -25 113 -25q61 0 114.5 22.5t93 62.5t62 93t22.5 115q0 61 -22.5 114.5t-62 93.5t-93 62.5t-114.5 22.5t-113.5 -22.5t-92.5 -62.5t-62.5 -93.5t-22.5 -114.5q0 -100 57 -176l-184 -185q-23 -23 -23 -53.5zM700 803q0 74 52.5 126 t126.5 52t126 -52t52 -126t-52 -126t-126 -52t-126.5 52t-52.5 126z" />
<glyph unicode="p" horiz-adv-x="1628" d="M96 717q0 150 56.5 280.5t153.5 228t228 154t281 56.5t281 -56.5t228 -154t153.5 -228.5t56.5 -280q0 -150 -56.5 -281t-153.5 -229t-228 -154.5t-281 -56.5t-281 56.5t-228 154.5t-153.5 229t-56.5 281zM512 807q0 -66 23.5 -109t80.5 -65q20 20 21.5 36.5t-6.5 34 t-18.5 35t-12.5 39.5q-1 10 -1 20q0 47 23 92q27 54 76.5 88t110.5 40q9 1 17 1q53 0 106 -32q43 -25 62 -85q13 -44 13 -91q0 -16 -1 -33q-7 -63 -36.5 -115.5t-80.5 -62.5q-23 -4 -44.5 1t-31.5 15q-25 25 -20.5 55.5t16.5 65.5t23 71q4 15 4 29q0 21 -9 42 q-12 29 -33.5 34t-44 -5.5t-40 -33t-21.5 -49.5q-4 -29 4 -54.5t8 -49.5q0 -29 -7 -61.5t-17 -66.5t-20.5 -66.5t-14.5 -61.5q-4 -23 -6 -61.5t4 -61.5h-2h51q27 45 44.5 106.5t31.5 120.5q10 6 14 -5t10 -15q25 -18 57 -23q17 -3 34 -3q15 0 31 2q32 5 62 18.5t48 29.5 q55 47 80 130q18 63 18 121q0 19 -2 38q-4 43 -25.5 81t-53 68.5t-73.5 50t-87 25.5q-24 3 -47 3q-47 0 -90 -11q-66 -16 -116.5 -54t-81 -93t-30.5 -125z" />
<glyph unicode="q" horiz-adv-x="1628" d="M94 719q0 150 56.5 279.5t153.5 228t228 155t281 58.5h10q141 0 267 -54q131 -57 229 -155t155.5 -230.5t57.5 -281.5v-10q0 -144 -54 -271q-57 -131 -155 -228t-229 -153.5t-281 -56.5t-281 56.5t-228 153.5t-153.5 228t-56.5 281zM451 557q2 -4 7 -8t9 -4h127 q18 4 29.5 24.5t19.5 36.5q29 49 56.5 98.5t54.5 94.5q-16 31 -36 63.5t-38 63.5q-8 14 -16.5 27.5t-24.5 15.5h-125q-12 -4 -14 -11q-4 -16 3 -25t13 -18q10 -18 21.5 -36.5t23.5 -38.5q4 -8 12.5 -21.5t8.5 -19.5q0 -4 -6.5 -13.5t-10.5 -15.5q-29 -47 -51 -90t-49 -90 q-4 -8 -11 -16q-5 -4 -5 -9q0 -4 2 -8zM723 631q35 -59 69.5 -125t69.5 -129q10 -16 23.5 -46t29.5 -36q13 -3 29 -3h8q21 1 45 1h42t28 10q4 10 -3 21.5t-11 21.5q-41 72 -80 143.5t-78 143.5q59 109 120.5 214t121.5 214q6 12 20 33q9 13 9 22q0 6 -3 10q-4 8 -26.5 7.5 t-40.5 -0.5q-23 0 -41.5 1t-28.5 1q-23 -2 -33 -21.5t-20 -36.5q-59 -111 -125 -224.5t-125 -221.5z" />
<glyph unicode="r" horiz-adv-x="1634" d="M96 713q0 150 56.5 279.5t153.5 228t228 155t281 58.5h10q141 0 267 -54q130 -56 228.5 -155t156 -231t59.5 -281q0 -150 -56.5 -281t-154.5 -228.5t-229 -153.5t-281 -56t-281 56t-228 153.5t-153.5 228.5t-56.5 281zM461 453q0 -16 12 -29.5t29 -13.5h635q16 0 29.5 13 t13.5 30v200l-101 -92v-26q0 -10 -7 -17.5t-17 -7.5h-471q-23 0 -23 25v327q0 10 6 17.5t17 7.5h116q25 29 64 56.5t80 39.5v2l-342 2q-16 0 -28.5 -13t-12.5 -30v-491zM668 608l6 -2q31 39 70.5 72t86 55.5t96.5 33.5q37 8 74 8q14 0 27 -1v-149l250 229v8l-250 230v-156 q-154 -2 -250 -85t-110 -243z" />
<glyph unicode="s" horiz-adv-x="1632" d="M96 719q0 150 56.5 279.5t153.5 227t228 154t281 58.5h10q141 0 267 -54q130 -56 228.5 -153.5t156 -230t59.5 -281.5q0 -150 -56.5 -281t-154.5 -229t-229 -154.5t-281 -56.5t-281 56.5t-228 154.5t-153.5 229t-56.5 281zM360 918q8 -27 31 -40.5t47 -5.5q2 0 72 16.5 t180 20.5q16 1 34 1q34 0 76 -3q62 -4 127.5 -16t136.5 -36t138 -62q15 -9 31 -9q39 0 55 33q8 16 8 32q0 9 -3 19q-7 26 -29 39q-124 73 -272 105q-131 29 -275 28h-35q-123 -4 -198.5 -22.5t-80.5 -18.5q-25 -7 -38 -31q-8 -15 -8 -31q0 -9 3 -19zM399 694 q8 -20 26.5 -29.5t39.5 -0.5l57 15q58 15 152 18h23q85 -1 190 -19q119 -22 241 -96q8 -8 25 -9q29 0 43 27q7 12 7 26q0 7 -2 14q-5 22 -21 32q-74 43 -145.5 69.5t-137.5 41t-125 18.5q-39 3 -73 3q-17 0 -33 -1q-104 -4 -168 -21.5t-68 -19.5q-20 -8 -28 -26 q-5 -11 -5 -24q0 -8 2 -18zM430 496q11 -33 39 -33q7 0 14 2l53 13q54 14 137 17h24q73 1 161 -15q102 -18 201 -81q10 -8 22 -8q25 0 37 23q7 11 7 22q0 4 -2 10q-5 16 -19 27q-112 71 -224 91q-102 19 -187 18h-17q-92 -2 -151.5 -16.5t-65.5 -16.5q-17 -5 -25 -21 q-6 -11 -5 -22q0 -5 1 -10z" />
<glyph unicode="t" d="M96 719q0 150 56.5 280.5t155 229t229.5 155t280 56.5q150 0 281 -56.5t228 -155t153.5 -229.5t56.5 -280q0 -150 -56.5 -281t-153.5 -228t-228 -153.5t-281 -56.5t-280.5 56.5t-229 153.5t-155 228t-56.5 281zM303 616q0 -49 41 -86v172q-18 -16 -29.5 -37.5 t-11.5 -48.5zM387 508q8 -2 15.5 -3t17.5 -1h10v225q-4 2 -10 2q-10 0 -17.5 -1t-15.5 -3v-219zM473 504h43v284q-27 -37 -35 -75l-8 4v-213zM559 504h43v346q-23 -6 -43 -21v-325zM645 504h43v354q-6 0 -13 1t-13 1q-10 0 -17 -2v-354zM711 504h63v356q-4 -6 -9 -12t-9 -14 q-20 10 -45 18v-348zM797 504h407v2q66 4 95.5 39t29.5 84q0 51 -33.5 87t-87.5 36q-23 0 -49 -11q-10 82 -71.5 137.5t-147.5 55.5t-143 -53v-377z" />
<glyph unicode="u" horiz-adv-x="1626" d="M90 719q0 150 56.5 279.5t154.5 228t229 155t281 58.5h10q141 0 267 -54q130 -56 227.5 -154.5t155 -231t59.5 -281.5v-10q0 -144 -54 -271q-56 -131 -154.5 -228t-229.5 -153.5t-281 -56.5t-281 56.5t-229 153.5t-154.5 228t-56.5 281zM500 660.5q0 -19.5 16 -33.5 l256 -228q16 -14 39 -14t39 14l254 228q16 14 16 33.5t-16 35.5h-121v310q0 20 -16.5 34.5t-38.5 14.5h-234q-23 0 -39 -14.5t-16 -34.5v-310h-123q-16 -16 -16 -35.5z" />
<glyph unicode="v" horiz-adv-x="1636" d="M96 719q0 150 56.5 279.5t153.5 227t228 154t281 58.5h10q141 0 267 -54q130 -56 228.5 -153.5t156 -230t59.5 -281.5q0 -150 -56.5 -281t-154.5 -229t-229 -154.5t-281 -56.5t-281 56.5t-228 154.5t-153.5 229t-56.5 281zM424 988q-12 -24 -12 -52q0 -30 14 -64 q80 -195 216 -329.5t329 -216.5q10 -6 21.5 -8.5t17.5 -4.5q45 0 88 35t57 76q8 20 5 34.5t-11 26t-20.5 20.5t-24.5 19q-18 14 -36.5 26.5t-37.5 27.5q-35 24 -65 24h-3q-32 -2 -61 -43q-16 -23 -36.5 -26t-43.5 8q-61 29 -107 71.5t-75 106.5q-12 29 -9 52.5t32 43.5 q16 10 28 24.5t10 37.5q0 14 -16 42.5t-37.5 58.5t-44 53.5t-37.5 29.5q-25 10 -47 0q-68 -23 -94 -73zM762 1068q0 -13 14 -15q16 -2 27 -4q154 -23 229.5 -101t95.5 -231q2 -16 2 -32.5t21 -16.5q20 0 20 15v32q0 72 -28.5 139.5t-77.5 119.5t-115.5 85t-140.5 35 q-13 -2 -29 1h-3q-15 1 -15 -27zM793 977q-1 -4 -1 -8q0 -13 12 -15q15 -2 32 -6q94 -23 135 -64.5t57 -135.5q2 -14 2 -30q0 -12 15 -12q5 0 10 1q15 2 15 15l-1 26q0 45 -17.5 87t-48 74.5t-71.5 55t-88 28.5q-16 2 -32 3h-1q-14 0 -18 -19zM823 879q-2 -6 -2 -11 q-1 -8 5 -10q10 -4 22 -6q76 -14 82 -90q2 -12 8 -20q4 -6 10 -6q3 0 6 1q14 2 17.5 11.5t3.5 21.5q0 23 -11.5 45.5t-28.5 39.5t-39 27.5t-42 10.5q-10 0 -18.5 -2t-12.5 -12z" />
<glyph unicode="w" horiz-adv-x="1628" d="M92 713q0 150 56.5 279.5t153.5 228t228 155t281 58.5h10q141 0 267 -54q130 -56 228.5 -155t156 -231t57.5 -281v-10q0 -144 -54 -271q-56 -131 -154.5 -228.5t-229.5 -153.5t-281 -56t-281 56t-228 153.5t-153.5 228.5t-56.5 281zM459 457l272 -39v268h-272v-229z M459 721h272v264l-272 -39v-225zM764 412l373 -56v330h-373v-274zM764 721h373v323l-373 -55v-268z" />
<glyph unicode="x" d="M94 719q0 150 56.5 279.5t153.5 227t228 154t281 58.5h10q141 0 267 -54q130 -56 228.5 -153.5t156 -230t57.5 -281.5v-10q0 -144 -54 -271q-56 -131 -154.5 -229t-229.5 -154.5t-281 -56.5t-281 56.5t-228 154.5t-153.5 229t-56.5 281zM342 588q0 -59 35 -105.5t90 -78 t126 -49t144 -17.5q96 0 175 24.5t134.5 63.5t86 86t30.5 92q0 53 -36.5 84t-77.5 43q-10 4 -14.5 8t-0.5 17q12 32 12 55t-12 39q-22 32 -77 32h-3q-57 -1 -129 -30q-8 -4 -14 -4q-12 0 -8 14q9 31 9 55q0 34 -19 54q-20 20 -54 20t-76 -16.5t-88.5 -48t-91.5 -74.5 q-66 -68 -103.5 -136.5t-37.5 -127.5zM438 551q-1 7 -1 13q-1 30 15 60q18 36 54.5 65.5t85.5 49t108 25.5q22 2 43 2q35 0 69 -6q54 -10 94 -31.5t65.5 -52.5t29.5 -70q1 -7 0 -13q0 -31 -15 -61q-19 -36 -55 -65t-86.5 -48.5t-107.5 -25.5q-23 -2 -45 -2q-34 -1 -66 5 q-52 10 -92 31.5t-66 53t-30 70.5zM560 503q22 -48 77 -67q22 -8 46 -7h13q30 3 58 14.5t49.5 32t34.5 46.5q12 26 12 50q0 26 -13 50q-26 46 -83 62q-22 6 -44 6q-32 0 -66 -14q-56 -24 -81 -74q-13 -27 -14 -53q1 -24 11 -46zM604 518q-2 6 -2 12q0 12 8 23q10 16 31 23.5 t39 1.5q18 -10 23 -28t-7 -36q-10 -18 -32 -26q-9 -3 -16 -3q-12 0 -23 7q-15 8 -21 26zM713 592q10 14 26 10q15 -8 9 -24q-9 -12 -21 -12q-4 0 -8 1q-10 5 -10 13q0 5 4 12zM954 1051q4 -14 15.5 -22.5t27.5 -4.5q19 4 38 4q27 0 53 -8q46 -14 77 -51q35 -37 43 -83 q3 -17 3 -33q0 -29 -9 -58q-4 -14 2 -27.5t23 -17.5q6 -2 11 -2q8 0 16 4q14 6 18 20v2q12 37 12 75q0 25 -5 51q-13 65 -60 116q-47 52 -109 72q-36 11 -74 12q-26 0 -53 -6q-17 -4 -25 -16q-6 -8 -5 -17q0 -5 1 -10zM985 932q4 -12 14.5 -19.5t22.5 -5.5q33 6 57 -18 q23 -25 13 -58q-11 -28 18 -38q5 -2 10 -2q8 0 14 4q12 6 15 18q6 18 6 37q0 12 -2 24q-6 32 -29 58q-24 25 -54 34q-18 5 -36 5q-12 0 -24 -2q-14 -5 -22 -15q-5 -7 -5 -14z" />
<glyph unicode="y" d="M92 713q0 150 56.5 279.5t154.5 228t229 155t281 58.5h10q141 0 267 -54q131 -57 228 -155.5t154.5 -230.5t59.5 -281v-10q0 -144 -54 -271q-57 -131 -155 -228.5t-229 -153.5t-281 -56t-281 56t-229 153.5t-154.5 228.5t-56.5 281zM389 1102q33 -51 75 -120t82 -137.5 t73.5 -128t52.5 -89.5l-8 -353q10 0 18 2q20 4 35 5q14 0 35 -5q8 -2 16 -2l-6 353q35 59 78 133t83 143.5t72.5 124t48.5 74.5q-28 -6 -56 -6t-54 6q-12 -23 -37 -65t-56.5 -94t-64.5 -106.5t-59 -99.5q-55 92 -115.5 190.5t-103.5 174.5q-35 -6 -54.5 -7t-54.5 7z M1026 340q0 -25 17.5 -38t41.5 -13q18 0 34 12t16 41q0 25 -16.5 38t-41.5 13q-27 0 -39 -15t-12 -38zM1081 473q12 4 21.5 1t19.5 -7q10 72 27.5 157t36 164.5t35 144t22.5 95.5q2 10 4 18.5t2 16.5q0 23 -13 35t-34 16q-6 1 -11 1q-21 0 -35 -13q-17 -15 -17 -43 q-10 -147 -24 -295t-34 -291z" />
<glyph unicode="z" horiz-adv-x="1652" d="M92 700q0 152 57.5 285t157 232.5t233 157t285.5 57.5t285 -57.5t232.5 -157t156.5 -232.5t57 -285q0 -121 -36.5 -231.5t-103 -200.5t-159 -157.5t-200.5 -104.5q-9 -2 -17 -2q-16 0 -23 8q-11 12 -11 29q0 18 1 72.5t1 128.5q0 51 -15.5 84.5t-34.5 50.5q61 6 121 24.5 t107 57.5t76.5 106.5t29.5 171.5q0 59 -20.5 108.5t-54.5 88.5q6 14 14 66q2 11 2 24q0 45 -23 104q-20 4 -49 -2q-25 -6 -62.5 -22.5t-90.5 -50.5q-83 24 -176 24h-7q-96 0 -184 -24q-53 35 -91 51t-63 22q-29 6 -47 2q-22 -59 -22 -103q0 -13 2 -25q8 -52 14 -66 q-35 -39 -55.5 -88t-20.5 -109q0 -104 29 -171.5t77 -106.5t107.5 -57.5t120.5 -24.5q-16 -14 -29.5 -39t-17.5 -59q-16 -6 -41.5 -13.5t-55.5 -5.5t-60.5 19.5t-55.5 60.5q-12 18 -29 35q-14 14 -34.5 25.5t-49.5 13.5q-18 0 -26 -4t-6 -13.5t28 -25.5q12 -8 27 -23 q12 -12 26.5 -32.5t26.5 -53.5q14 -37 47 -59q29 -19 76 -31q20 -5 45 -5q35 0 80 9v-135q0 -17 -10 -29q-7 -8 -22 -8q-7 0 -17 2q-109 37 -201 104.5t-158.5 157.5t-104.5 201t-38 231zM350 389q2 5 7 5q3 0 8 -3q8 -4 6 -10q-4 -6 -13 -2q-8 2 -8 10zM383 367q2 1 5 1 q5 0 9 -6q12 -8 2 -14q-4 -8 -14 2q-5 6 -5 10t3 7zM412 311q-4 5 -4 10t4 9q3 1 5 1q6 0 11 -7q10 -11 0 -19q-6 -4 -16 6zM444 287q3 3 7 3q6 0 14 -7q14 -9 4 -19q-6 -6 -20 4q-8 6 -8 12q0 4 3 7zM492 250q3 7 11 7q3 0 7 -1q16 -4 12 -14t-18 -6q-12 2 -12 14zM551 236 q0 12 16 12q17 0 17 -10q0 -12 -17 -13q-16 0 -16 11zM608 242q-1 2 -1 3q0 6 14 9q4 1 6 1q9 0 12 -9q0 -12 -14 -13q-4 -1 -7 -1q-9 0 -10 10z" />
<glyph unicode="&#xa0;" d="M96 729q0 150 56.5 281t155 228t229 153.5t280.5 56.5t281 -56.5t228 -153.5t153.5 -228t56.5 -281t-56.5 -281t-153.5 -229t-228 -154.5t-281 -56.5t-280.5 56.5t-229 154.5t-155 229.5t-56.5 280.5z" />
<glyph unicode="&#xad;" d="M96 719q0 150 56.5 280.5t153.5 228t228 154t281 56.5t281 -56.5t229 -154t154.5 -228.5t56.5 -280q0 -150 -56.5 -281t-154.5 -229t-229 -154.5t-281 -56.5t-281 56.5t-228 154.5t-153.5 229t-56.5 281zM501 824.5q-9 -19.5 15 -48.5h2l119 -145l-62 -176 q-10 -35 4.5 -48.5t47.5 3.5l188 94l189 -94q35 -16 49 -3t2 48l-60 176l119 145h2q23 29 13.5 48.5t-46.5 19.5h-155l-76 157q-16 35 -36.5 35t-37.5 -35l-73 -157h-158q-37 0 -46 -19.5z" />
<glyph unicode="&#x2000;" horiz-adv-x="724" />
<glyph unicode="&#x2001;" horiz-adv-x="1448" />
<glyph unicode="&#x2002;" horiz-adv-x="724" />
<glyph unicode="&#x2003;" horiz-adv-x="1448" />
<glyph unicode="&#x2004;" horiz-adv-x="482" />
<glyph unicode="&#x2005;" horiz-adv-x="362" />
<glyph unicode="&#x2006;" horiz-adv-x="241" />
<glyph unicode="&#x2007;" horiz-adv-x="241" />
<glyph unicode="&#x2008;" horiz-adv-x="181" />
<glyph unicode="&#x2009;" horiz-adv-x="289" />
<glyph unicode="&#x200a;" horiz-adv-x="80" />
<glyph unicode="&#x2010;" d="M96 719q0 150 56.5 280.5t153.5 228t228 154t281 56.5t281 -56.5t229 -154t154.5 -228.5t56.5 -280q0 -150 -56.5 -281t-154.5 -229t-229 -154.5t-281 -56.5t-281 56.5t-228 154.5t-153.5 229t-56.5 281zM501 824.5q-9 -19.5 15 -48.5h2l119 -145l-62 -176 q-10 -35 4.5 -48.5t47.5 3.5l188 94l189 -94q35 -16 49 -3t2 48l-60 176l119 145h2q23 29 13.5 48.5t-46.5 19.5h-155l-76 157q-16 35 -36.5 35t-37.5 -35l-73 -157h-158q-37 0 -46 -19.5z" />
<glyph unicode="&#x2011;" d="M96 719q0 150 56.5 280.5t153.5 228t228 154t281 56.5t281 -56.5t229 -154t154.5 -228.5t56.5 -280q0 -150 -56.5 -281t-154.5 -229t-229 -154.5t-281 -56.5t-281 56.5t-228 154.5t-153.5 229t-56.5 281zM501 824.5q-9 -19.5 15 -48.5h2l119 -145l-62 -176 q-10 -35 4.5 -48.5t47.5 3.5l188 94l189 -94q35 -16 49 -3t2 48l-60 176l119 145h2q23 29 13.5 48.5t-46.5 19.5h-155l-76 157q-16 35 -36.5 35t-37.5 -35l-73 -157h-158q-37 0 -46 -19.5z" />
<glyph unicode="&#x2012;" d="M96 719q0 150 56.5 280.5t153.5 228t228 154t281 56.5t281 -56.5t229 -154t154.5 -228.5t56.5 -280q0 -150 -56.5 -281t-154.5 -229t-229 -154.5t-281 -56.5t-281 56.5t-228 154.5t-153.5 229t-56.5 281zM501 824.5q-9 -19.5 15 -48.5h2l119 -145l-62 -176 q-10 -35 4.5 -48.5t47.5 3.5l188 94l189 -94q35 -16 49 -3t2 48l-60 176l119 145h2q23 29 13.5 48.5t-46.5 19.5h-155l-76 157q-16 35 -36.5 35t-37.5 -35l-73 -157h-158q-37 0 -46 -19.5z" />
<glyph unicode="&#x2013;" horiz-adv-x="1214" d="M96 719q0 150 40 280.5t109 228t162.5 154t199.5 56.5q107 0 200 -56.5t163 -154t110 -228.5t40 -280q0 -150 -40 -281t-110 -229t-163 -154.5t-200 -56.5q-106 0 -199.5 56.5t-162.5 154.5t-109 229t-40 281zM384 824.5q-6 -19.5 11 -48.5h1l85 -145l-44 -176 q-7 -35 3 -48.5t34 3.5l133 94l135 -94q25 -16 34.5 -3t1.5 48l-43 176l85 145h1q17 29 10 48.5t-33 19.5h-110l-54 157q-12 35 -26.5 35t-26.5 -35l-52 -157h-112q-27 0 -33 -19.5z" />
<glyph unicode="&#x2014;" horiz-adv-x="2238" d="M96 719q0 150 80.5 280.5t218.5 228t324 154t400 56.5q213 0 399.5 -56.5t325.5 -154t219.5 -228.5t80.5 -280q0 -150 -80.5 -281t-219.5 -229t-325.5 -154.5t-399.5 -56.5q-214 0 -400 56.5t-324 154.5t-218.5 229t-80.5 281zM672 824.5q-13 -19.5 21 -48.5h3l169 -145 l-88 -176q-14 -35 6.5 -48.5t67.5 3.5l268 94l268 -94q50 -16 70 -3t3 48l-85 176l169 145h3q32 29 18.5 48.5t-65.5 19.5h-221l-108 157q-23 35 -52 35t-53 -35l-104 -157h-225q-52 0 -65 -19.5z" />
<glyph unicode="&#x202f;" horiz-adv-x="289" />
<glyph unicode="&#x205f;" horiz-adv-x="362" />
<glyph unicode="&#x25fc;" horiz-adv-x="1433" d="M0 0v1434h1434v-1434h-1434z" />
</font>
</defs>
</svg>
